<?xml version="1.0" standalone="no"?>
<!DOCTYPE svg PUBLIC "-//W3C//DTD SVG 1.1//EN" "http://www.w3.org/Graphics/SVG/1.1/DTD/svg11.dtd" >
<!--
2015-7-24: Created with FontForge (http://fontforge.org)
-->
<svg xmlns="http://www.w3.org/2000/svg" xmlns:xlink="http://www.w3.org/1999/xlink" version="1.1">
<metadata>
Created by FontForge 20150603 at Fri Jul 24 07:27:15 2015
 By icons8
Copyright (c) 2015, icons8
</metadata>
<defs>
<font id="icons8-win10" horiz-adv-x="512" >
  <font-face 
    font-family="icons8-win10"
    font-weight="400"
    font-stretch="normal"
    units-per-em="512"
    panose-1="2 0 5 9 0 0 0 0 0 0"
    ascent="448"
    descent="-64"
    bbox="0 -64 512 414.496"
    underline-thickness="25.6"
    underline-position="-51.2"
    unicode-range="U+F100-F1E9"
  />
    <missing-glyph />
    <glyph glyph-name="uniF101" unicode="&#xf101;" 
d="M224 384c61.6641 0 112 -50.3359 112 -112c0 -38.5596 -19.6797 -72.8477 -49.5039 -92.9922c7.77637 -3.32812 15.4238 -7.05566 22.4961 -11.4883c21.0879 15.2803 47.0557 24.4805 75.0078 24.4805c70.4961 0 128 -57.5039 128 -128s-57.5039 -128 -128 -128
s-128 57.5039 -128 128c0 30.3682 10.7197 58.5283 28.4805 80.4805c-18.0166 9.79199 -38.4648 15.5195 -60.4805 15.5195c-70.8799 0 -128 -57.1201 -128 -128h-32c0 65.9199 40.4316 122.512 97.5039 146.992c-29.8242 20.1758 -49.5039 54.4482 -49.5039 93.0078
c0 61.6641 50.3359 112 112 112zM224 352c-44.3682 0 -80 -35.6318 -80 -80s35.6318 -80 80 -80s80 35.6318 80 80s-35.6318 80 -80 80zM384 160c-53.2158 0 -96 -42.7842 -96 -96s42.7842 -96 96 -96s96 42.7842 96 96s-42.7842 96 -96 96zM368 128h32v-48h48v-32h-48v-48
h-32v48h-48v32h48v48z" />
    <glyph glyph-name="uniF199" unicode="&#xf199;" 
d="M192 368h192v-32h-32v-320h-32v320h-32v-320h-32v160h-64c-52.832 0 -96 43.168 -96 96s43.168 96 96 96zM192 336c-35.5195 0 -64 -28.4805 -64 -64s28.4805 -64 64 -64h64v128h-64z" />
    <glyph glyph-name="uniF160" unicode="&#xf160;" 
d="M256 384c19.7441 0 36.6719 -12.3203 44 -29.5039l81.5039 13.5039l18.4961 3.00781v-102.016l-18.4961 3.00781l-77.5039 13.0078v-4.52734c5.12012 -3.79199 11.7275 -9.2002 19.5195 -16.9609c13.2324 -13.2793 28.4805 -31.5195 28.4805 -55.5195v-208h-192v208
c0 24 15.2637 42.2402 28.4805 55.5195c7.79199 7.76074 14.3994 13.1689 19.5195 16.9609v39.5195h-16c-26.4805 0 -48 -21.5195 -48 -48h-32c0 43.9199 36.0801 80 80 80h18.9922c6.7041 18.4961 24.3359 32 45.0078 32zM256 352c-8.87988 0 -16 -7.12012 -16 -16v-48h32
v48c0 8.87988 -7.12012 16 -16 16zM368 332.992v0.015625l-64 -11.0078v-4l64 -11.0078v26zM230 256h0.015625c-2.41602 -1.67969 -9.24805 -6.24023 -18.4795 -15.5195c-10.7686 -10.7207 -19.5205 -24.4805 -19.5205 -32.4805v-176h128v176
c0 8 -8.75195 21.7598 -19.5195 32.4805c-9.24805 9.2793 -16.0957 13.8398 -18.4961 15.5195h-52zM224 176h64v-32h-64v32z" />
    <glyph glyph-name="uniF14B" unicode="&#xf14b;" 
d="M254.496 371.52h0.015625l22.4961 -23.0391l-156.479 -156.48l156.464 -156.48l-22.4961 -23.0391l-168 168l-11.4883 11.5195l11.4883 11.5195zM366.496 371.52l22.5117 -23.0391l-156.527 -156.48l156.527 -156.48l-22.5117 -23.0391l-168 168l-11.5205 11.5195
l11.5205 11.5195z" />
    <glyph glyph-name="uniF107" unicode="&#xf107;" 
d="M48 336h416v-32h-416v32zM48 272h288v-32h-288v32zM48 208h416v-32h-416v32zM48 144h288v-32h-288v32zM48 80h416v-32h-416v32z" />
    <glyph glyph-name="uniF17F" unicode="&#xf17f;" 
d="M32 336h416c17.4883 0 32 -14.5117 32 -32v-224c0 -17.4883 -14.5117 -32 -32 -32h-416c-17.4883 0 -32 14.5117 -32 32v224c0 17.4883 14.5117 32 32 32zM32 304v-224h416v224h-416zM64 272h32v-32h-32v32zM128 272h32v-32h-32v32zM192 272h32v-32h-32v32zM256 272h32
v-32h-32v32zM320 272h32v-32h-32v32zM384 272h32v-32h-32v32zM64 208h64v-32h-64v32zM160 208h32v-32h-32v32zM224 208h32v-32h-32v32zM288 208h32v-32h-32v32zM352 208h64v-32h-64v32zM64 144h64v-32h-64v32zM160 144h160v-32h-160v32zM352 144h64v-32h-64v32z" />
    <glyph glyph-name="uniF173" unicode="&#xf173;" 
d="M80 368h352v-352h-352v352zM112 336v-288h288v288h-288zM176 288h32v-80h96v80h32v-192h-32v80h-96v-80h-32v192z" />
    <glyph glyph-name="uniF1B5" unicode="&#xf1b5;" 
d="M144 352h152c48.416 0 88 -39.584 88 -88s-39.584 -88 -88 -88h-120v-48h96v-32h-96v-64h-32v64h-32v32h32v224zM176 320v-112h120c31.1035 0 56 24.8965 56 56s-24.8965 56 -56 56h-120z" />
    <glyph glyph-name="uniF1D9" unicode="&#xf1d9;" 
d="M112 384h32v-192c0 -53.9199 42.0801 -96 96 -96s96 42.0801 96 96v192h32v-192c0 -70.8799 -57.1201 -128 -128 -128s-128 57.1201 -128 128v192zM80 32h320v-32h-320v32z" />
    <glyph glyph-name="uniF164" unicode="&#xf164;" 
d="M240 368c61.6641 0 112 -50.3359 112 -112c0 -38.5596 -19.6797 -72.832 -49.5039 -92.9922c57.0723 -24.4795 97.5039 -81.0879 97.5039 -147.008h-32c0 70.8799 -57.1201 128 -128 128s-128 -57.1201 -128 -128h-32c0 65.9199 40.4316 122.512 97.5039 146.992
c-29.8242 20.1758 -49.5039 54.4482 -49.5039 93.0078c0 61.6641 50.3359 112 112 112zM240 336c-44.3682 0 -80 -35.6318 -80 -80s35.6318 -80 80 -80s80 35.6318 80 80s-35.6318 80 -80 80z" />
    <glyph glyph-name="uniF145" unicode="&#xf145;" 
d="M96 352c35.1523 0 64 -28.8477 64 -64c0 -4.40039 -0.639648 -8.83203 -1.50391 -12.9922c-0.671875 -3.31152 -1.82422 -6.39941 -2.97656 -9.50391l96.9609 -55.0078l163.52 93.5039h64l-324.48 -185.504c2.64062 -6.97656 4.48047 -14.5918 4.48047 -22.4961
c0 -35.1523 -28.8477 -64 -64 -64s-64 28.8477 -64 64s28.8477 64 64 64c15.7119 0 29.8242 -5.98438 40.9922 -15.5039l82.5273 46.9922l-83.5195 47.5195c-11.04 -9.08789 -24.6885 -15.0078 -40 -15.0078c-35.1523 0 -64 28.8477 -64 64s28.8477 64 64 64zM96 320
c-15.6162 0 -28.5283 -10.832 -31.5195 -25.5039c-0.400391 -2.0957 -0.480469 -4.25586 -0.480469 -6.49609c0 -17.8564 14.1436 -32 32 -32s32 14.1436 32 32s-14.1436 32 -32 32zM305.504 178.992v0.015625l174.496 -99.0078h-64l-142.496 81.5039zM96 128
c-15.6162 0 -28.5283 -10.832 -31.5195 -25.5039c-0.400391 -2.0957 -0.480469 -4.25586 -0.480469 -6.49609c0 -17.8564 14.1436 -32 32 -32s32 14.1436 32 32s-14.1436 32 -32 32z" />
    <glyph glyph-name="uniF16F" unicode="&#xf16f;" 
d="M128 336c52.832 0 96 -43.168 96 -96c0 -31.7441 -15.584 -60 -39.5195 -77.5039c23.3594 -11.584 42.8799 -29.7598 55.5195 -52.4805c12.6396 22.7207 32.1602 40.8965 55.5195 52.4805c-23.9199 17.5039 -39.5195 45.7598 -39.5195 77.5039c0 52.832 43.168 96 96 96
s96 -43.168 96 -96c0 -31.7441 -15.584 -60 -39.5195 -77.5039c42.2393 -20.96 71.5195 -64.3203 71.5195 -114.496h-32c0 53.2158 -42.7842 96 -96 96s-96 -42.7842 -96 -96h-32c0 53.2158 -42.7842 96 -96 96s-96 -42.7842 -96 -96h-32
c0 50.1758 29.2803 93.5361 71.5195 114.496c-23.9199 17.5039 -39.5195 45.7598 -39.5195 77.5039c0 52.832 43.168 96 96 96zM128 304c-35.5195 0 -64 -28.4805 -64 -64s28.4805 -64 64 -64s64 28.4805 64 64s-28.4805 64 -64 64zM352 304
c-35.5195 0 -64 -28.4805 -64 -64s28.4805 -64 64 -64s64 28.4805 64 64s-28.4805 64 -64 64z" />
    <glyph glyph-name="uniF10F" unicode="&#xf10f;" 
d="M256 342.496l11.5195 -10.9766l200 -200l-23.0391 -22.9912l-188.48 188.479l-188.48 -188.544l-23.0391 23.04l200 200z" />
    <glyph glyph-name="uniF142" unicode="&#xf142;" 
d="M256 400c114.688 0 208 -93.3115 208 -208s-93.3115 -208 -208 -208s-208 93.3115 -208 208s93.3115 208 208 208zM256 368c-97.3916 0 -176 -78.6084 -176 -176s78.6084 -176 176 -176s176 78.6084 176 176s-78.6084 176 -176 176zM254.496 288v0.015625
c38.4004 0 71.2158 -23.04 86.5117 -55.5195l-29.0078 -13.5039c-10.3037 21.9355 -31.9043 37.0078 -57.5039 37.0078c-36.416 0 -64 -27.584 -64 -64s27.584 -64 64 -64c25.5996 0 47.1836 15.0723 57.5039 37.0078l28.9922 -13.4883
c-15.2959 -32.4795 -48.0957 -55.5195 -86.4961 -55.5195c-53.1846 0 -96 42.8164 -96 96s42.8154 96 96 96z" />
    <glyph glyph-name="uniF154" unicode="&#xf154;" 
d="M302 384l23.0078 -22.0156l-96.5273 -102.48l116 -70l17.5039 -10.5117l-14.4805 -14.5117l-132.512 -132.48h73.0078v-32h-128v128h32v-73.0078l117.984 118.016l-114.992 69.5039l-17.0078 9.98438l13.5195 14.4961z" />
    <glyph glyph-name="uniF152" unicode="&#xf152;" 
d="M256 368c54.0479 0 98.2402 -34.1279 117.504 -80.9922c56.4316 -2.91211 101.28 -47.7754 104.992 -104c19.8242 -17.6318 33.5039 -42.8477 33.5039 -71.0078c0 -53.1836 -42.8164 -96 -96 -96h-320c-53.1836 0 -96 42.8164 -96 96
c0 44.0322 30.1436 79.1357 69.5039 90.4805c9.55176 27.1992 32.7842 46.7197 61.4883 51.5195c7.24805 63.9199 59.0879 114 125.008 114zM256 336c-53.9199 0 -96 -42.0801 -96 -96v-16h-16c-23.1035 0 -42.208 -15.4082 -47.0078 -36.9922l-2 -10.5117l-10.5117 -2
c-29.2803 -5.08789 -52.4805 -30.1758 -52.4805 -62.4961c0 -36.416 27.584 -64 64 -64h320c36.416 0 64 27.584 64 64c0 20.2725 -10.4004 39.6797 -25.5039 50.9922l-6.49609 5.00781v8c0 44.0801 -35.9199 80 -80 80h-16.4805l-3.51953 11.5195
c-12.4805 40.1602 -47.8076 68.4805 -92 68.4805zM240 256h32v-105.008l36.4805 36.5273l23.0391 -23.0391l-64 -64l-11.5195 -10.9922l-11.5195 10.9756l-64 64l23.0391 23.04l36.4805 -36.5117v105.008z" />
    <glyph glyph-name="uniF162" unicode="&#xf162;" 
d="M256 400c114.688 0 208 -93.3115 208 -208s-93.3115 -208 -208 -208s-208 93.3115 -208 208s93.3115 208 208 208zM256 368c-9.56836 0 -18.8477 -1.05566 -28 -2.49609l28 -20l28 20c-9.2002 1.48828 -18.3682 2.49609 -28 2.49609zM188.992 354.496l0.0322266 0.015625
c-26.0488 -10.7197 -49.0244 -27.3594 -67.0088 -48.4795l22.4805 -68l3.51953 -10.9922l-9.50391 -6.52832l-57.4873 -42c2.14355 -28.416 10.4795 -54.9756 24.4795 -78.0156h83.5205l3.47168 -11.0078l22 -68.4805c13.3115 -3.21582 27.1836 -5.00781 41.5039 -5.00781
c13.7598 0 27.168 1.51953 40 4.48047l22.4805 69.5352l3.4873 11.0088h84.5127c13.7598 22.8955 22.3672 49.2959 24.5117 77.4873l-58 42.4961l-9.48828 6.52832l3.48828 10.9922l22 68.5117c-17.8398 20.6084 -40.4004 36.8799 -66 47.4883l-57.4883 -42.0166
l-9.50391 -6.99219l-9.50391 6.97656zM256 286.496l0.0322266 -0.0322266l9.50391 -6.97559l72.9922 -53.0078l9.02344 -6.97656l-3.51953 -11.04l-28 -85.4883l-3.52051 -11.0078h-112.976l-3.52051 11.0078l-28 85.4727l-3.51953 11.04l9.00781 6.99219l72.9922 53.0234z
M412 273.504l-11.0078 -34.0156l28.5117 -20.4805c-2.99219 19.3926 -8.75195 37.7441 -17.5039 54.4961zM99.5195 272.496l-0.015625 0.015625c-8.47949 -16.4639 -14.0801 -34.4639 -17.0078 -53.5039l28 20.5283zM256 246.512v-0.03125l-54 -38.9609l20.4805 -63.5195
h67.0391l20.4805 63.5195zM345.504 69.0078v0.0166016l-11.0078 -34.5127c17.7275 8.84863 33.3604 20.4639 47.0078 34.4961h-36zM130.496 68.5283l0.015625 -0.0166016c13.3125 -13.5039 28.8965 -24.832 45.9844 -33.5039l-10.9922 33.5205h-35.0078z" />
    <glyph glyph-name="uniF1E7" unicode="&#xf1e7;" 
d="M64 352h32l28.9922 -96h91.0078l24 96h32l24 -96h90.9922l29.0078 96h32l-29.0078 -96h29.0078v-32h-38.4961l-9.50391 -32h48v-32h-57.5039l-38.4961 -128h-32l-32 128h-64l-32 -128h-32l-38.4961 128h-57.5039v32h48l-9.50391 32h-38.4961v32h29.0078zM256 288l-8 -32
h16zM134.496 224l9.50391 -32h56l8 32h-73.5039zM240 224l-8 -32h48l-8 32h-32zM304 224l8 -32h56l9.50391 32h-73.5039zM153.504 160l20.9922 -70l17.5039 70h-38.4961zM320 160l17.5039 -70l20.9922 70h-38.4961z" />
    <glyph glyph-name="uniF1AF" unicode="&#xf1af;" 
d="M256 414.496l11.5195 -10.9766l128 -128l-23.0391 -23.0391l-100.48 100.512v-322l100.48 100.576l23.0391 -23.04l-128 -128l-11.5195 -10.9922l-11.5195 10.9756l-128 128l23.0391 22.9922l100.48 -100.479v322l-100.48 -100.561l-23.0391 23.04l128 128z" />
    <glyph glyph-name="uniF10D" unicode="&#xf10d;" 
d="M304.48 379.52l22.9912 -23.0391l-164.479 -164.48l164.544 -164.48l-23.04 -23.0391l-176 176l-10.9922 11.5195l10.9766 11.5195z" />
    <glyph glyph-name="uniF137" unicode="&#xf137;" 
d="M256 384c105.856 0 192 -86.1436 192 -192s-86.1436 -192 -192 -192s-192 86.1436 -192 192s86.1436 192 192 192zM256 352c-88.5596 0 -160 -71.4404 -160 -160s71.4404 -160 160 -160s160 71.4404 160 160s-71.4404 160 -160 160z" />
    <glyph glyph-name="uniF1A6" unicode="&#xf1a6;" 
d="M272 400c35.3604 0 64 -28.6396 64 -64h96v-112h-32c-19.04 0 -32 -12.96 -32 -32s12.96 -32 32 -32h32v-112h-96c0 -35.3604 -28.6396 -64 -64 -64s-64 28.6396 -64 64h-96v80c-35.3604 0 -64 28.6396 -64 64s28.6396 64 64 64v80h96c0 35.3604 28.6396 64 64 64z
M272 368c-19.04 0 -32 -12.96 -32 -32v-32h-96v-80h-32c-19.04 0 -32 -12.96 -32 -32s12.96 -32 32 -32h32v-80h96v-32c0 -19.04 12.96 -32 32 -32s32 12.96 32 32v32h96v48c-35.3604 0 -64 28.6396 -64 64s28.6396 64 64 64v48h-96v32c0 19.04 -12.96 32 -32 32z" />
    <glyph glyph-name="uniF13D" unicode="&#xf13d;" 
d="M80 368h352v-352h-352v352zM112 336v-288h128v288h-128zM272 336v-288h128v288h-128z" />
    <glyph glyph-name="uniF17A" unicode="&#xf17a;" 
d="M80 352h352c26.3203 0 48 -21.6797 48 -48v-224c0 -26.3203 -21.6797 -48 -48 -48h-352c-26.3203 0 -48 21.6797 -48 48v224c0 26.3203 21.6797 48 48 48zM80 320c-8.87988 0 -16 -7.12012 -16 -16v-224c0 -8.87988 7.12012 -16 16 -16h352c8.87988 0 16 7.12012 16 16
v224c0 8.87988 -7.12012 16 -16 16h-352zM96 208c8.83203 0 16 -7.16797 16 -16s-7.16797 -16 -16 -16s-16 7.16797 -16 16s7.16797 16 16 16z" />
    <glyph glyph-name="uniF15A" unicode="&#xf15a;" 
d="M192 368h192v-80h64v-256h-256v-16c0 -26.3203 -21.6797 -48 -48 -48s-48 21.6797 -48 48v16h-32v288h96v-32h32v80zM224 336v-80h128v80h-128zM96 288v-224h32v224h-32zM160 256v-192h256v192h-32v-32h-192v32h-32zM208 192h32v-32h-32v32zM272 192h32v-32h-32v32z
M336 192h32v-32h-32v32zM208 128h32v-32h-32v32zM272 128h32v-32h-32v32zM336 128h32v-32h-32v32zM128 32v-16c0 -8.87988 7.12012 -16 16 -16s16 7.12012 16 16v16h-32z" />
    <glyph glyph-name="uniF1A9" unicode="&#xf1a9;" 
d="M256 384.48l0.015625 -0.0166016c16.8643 0 33.8887 -8.24023 44 -24l50 -80.96l22.9922 13.5039v-85.0078l-74.0322 41.4883l24 14.0156l-50 80c-8.46387 13.168 -24.832 12.8799 -33.4717 0l-44.9922 -73.4883l-27.5195 16.4805l45.0078 73.9844
c10.1123 15.7598 27.1357 24 44 24zM166.496 254.496h-0.015625v-84.9922l-24.4805 14.9766l-42 -68v-0.480469l-0.480469 -0.480469c-10.6553 -15.5195 0.208008 -35.5195 20.4805 -35.5195h88v-32h-88c-43.3916 0 -70.5283 49.3438 -47.0078 85.0244
c0.191406 0.255859 -0.192383 0.6875 0 0.959961l0.511719 -0.480469l40.9922 67.4883l-20 12zM400.992 197.504v-0.015625l40 -64v-0.480469c21.7598 -37.0078 -5.2959 -85.0078 -47.4883 -85.0078h-89.5039v-32l-78.4961 48.0156l78.4961 48v-32h89.5039
c18.6084 0 30.2402 19.0879 20 36.4805l-40 64z" />
    <glyph glyph-name="uniF185" unicode="&#xf185;" 
d="M336 382.496v0.015625l11.5195 -10.9756l96 -96l-23.0391 -23.04l-68.4805 68.5117v-305.008h-272v32h240v273.024l-68.4805 -68.5605l-23.0391 23.04l96 96z" />
    <glyph glyph-name="uniF1C4" unicode="&#xf1c4;" 
d="M192 374.496v-0.015625l27.5039 -26.9443l144 -144l10.9922 -11.5205l-10.9766 -11.5195l-144 -144l-27.5195 -26.9922v364.992zM224 297.008v-0.015625v-210l105.008 105.008z" />
    <glyph glyph-name="uniF1CF" unicode="&#xf1cf;" 
d="M64 352h256v-32h-112v-288h-32v288h-112v32zM400 342l56 -70h-40v-160h40l-56 -70l-56 70h40v160h-40z" />
    <glyph glyph-name="uniF13F" unicode="&#xf13f;" 
d="M452.48 411.52h-0.0166016l23.04 -23.0391l-149.008 -148.48h137.504v-32h-192v192h32v-137.52zM48 176h192v-192h-32v137.52l-148.48 -149.039l-23.0391 23.0391l149.023 148.48h-137.504v32z" />
    <glyph glyph-name="uniF16C" unicode="&#xf16c;" 
d="M48 352h416v-320h-416v320zM80 320v-64h64v64h-64zM176 320v-64h64v64h-64zM272 320v-64h64v64h-64zM368 320v-64h64v64h-64zM80 224v-64h64v64h-64zM176 224v-64h64v64h-64zM272 224v-64h64v64h-64zM368 224v-64h64v64h-64zM80 128v-64h64v64h-64zM176 128v-64h64v64
h-64zM272 128v-64h64v64h-64zM368 128v-64h64v64h-64z" />
    <glyph glyph-name="uniF179" unicode="&#xf179;" 
d="M80 368h352v-352h-352v352zM112 336v-80h80v80h-80zM224 336v-80h64v80h-64zM320 336v-80h80v80h-80zM112 224v-64h80v64h-80zM224 224v-64h64v64h-64zM320 224v-64h80v64h-80zM112 128v-80h80v80h-80zM224 128v-80h64v80h-64zM320 128v-80h80v80h-80z" />
    <glyph glyph-name="uniF1D1" unicode="&#xf1d1;" 
d="M32 336h448v-112h-16c-19.04 0 -32 -12.96 -32 -32s12.96 -32 32 -32h16v-112h-448v112h16c19.04 0 32 12.96 32 32s-12.96 32 -32 32h-16v112zM64 304v-50.9922c27.4404 -7.21582 48 -31.2959 48 -61.0078s-20.5596 -53.792 -48 -60.9922v-51.0078h384v50.9922
c-27.4404 7.21582 -48 31.2959 -48 61.0078s20.5596 53.792 48 60.9922v51.0078h-384z" />
    <glyph glyph-name="uniF12B" unicode="&#xf12b;" 
d="M200 368c17.1201 0 32.0322 -9.71191 41.5039 -22.9922s14.4961 -30.4482 14.4961 -49.0078s-5.02441 -35.7119 -14.4961 -48.9922s-24.3838 -23.0078 -41.5039 -23.0078s-32.0322 9.71191 -41.5039 22.9922s-14.4961 30.4482 -14.4961 49.0078
s5.02441 35.7119 14.4961 48.9922s24.3838 23.0078 41.5039 23.0078zM256 296c0 18.5596 5.02441 35.7119 14.4961 48.9922s24.3838 23.0078 41.5039 23.0078s32.0322 -9.71191 41.5039 -22.9922s14.4961 -30.4482 14.4961 -49.0078s-5.02441 -35.7119 -14.4961 -48.9922
s-24.3838 -23.0078 -41.5039 -23.0078c-17.1035 0 -32.0322 9.71191 -41.5039 22.9922s-14.4961 30.4482 -14.4961 49.0078zM200 336c-4.99219 0 -10.4961 -2.49609 -15.5195 -9.50391c-4.96094 -6.97656 -8.48047 -18.1279 -8.48047 -30.4961
s3.51953 -23.5039 8.48047 -30.4961c5.02344 -7.00781 10.5273 -9.50391 15.5195 -9.50391s10.4961 2.49609 15.5195 9.50391c4.96094 6.97656 8.48047 18.1279 8.48047 30.4961s-3.51953 23.5039 -8.48047 30.4961c-5.02344 7.00781 -10.5273 9.50391 -15.5195 9.50391z
M312 336c-4.99219 0 -10.4961 -2.49609 -15.5195 -9.50391c-4.96094 -6.97656 -8.48047 -18.1279 -8.48047 -30.4961s3.51953 -23.5039 8.48047 -30.4961c5.02344 -7.00781 10.5273 -9.50391 15.5195 -9.50391s10.4961 2.49609 15.5195 9.50391
c4.96094 6.97656 8.48047 18.1279 8.48047 30.4961s-3.51953 23.5039 -8.48047 30.4961c-5.02344 7.00781 -10.5273 9.50391 -15.5195 9.50391zM120 256c17.1201 0 32.0322 -9.71191 41.5039 -22.9922s14.4961 -30.4482 14.4961 -49.0078
s-5.02441 -35.7119 -14.4961 -48.9922s-24.3838 -23.0078 -41.5039 -23.0078s-32.0322 9.71191 -41.5039 22.9922s-14.4961 30.4482 -14.4961 49.0078s5.02441 35.7119 14.4961 48.9922s24.3838 23.0078 41.5039 23.0078zM392 256
c17.1201 0 32.0322 -9.71191 41.5039 -22.9922s14.4961 -30.4482 14.4961 -49.0078s-5.02441 -35.7119 -14.4961 -48.9922s-24.3838 -23.0078 -41.5039 -23.0078s-32.0322 9.71191 -41.5039 22.9922s-14.4961 30.4482 -14.4961 49.0078s5.02441 35.7119 14.4961 48.9922
s24.3838 23.0078 41.5039 23.0078zM120 224c-4.99219 0 -10.4961 -2.49609 -15.5195 -9.50391c-4.96094 -6.97656 -8.48047 -18.1279 -8.48047 -30.4961s3.51953 -23.5195 8.48047 -30.4961c5.02344 -7.00781 10.5273 -9.50391 15.5195 -9.50391
s10.4961 2.49609 15.5195 9.50391c4.96094 6.97656 8.48047 18.1279 8.48047 30.4961s-3.51953 23.5039 -8.48047 30.4961c-5.02344 7.00781 -10.5273 9.50391 -15.5195 9.50391zM392 224c-4.99219 0 -10.4961 -2.49609 -15.5195 -9.50391
c-4.96094 -6.97656 -8.48047 -18.1279 -8.48047 -30.4961s3.51953 -23.5039 8.48047 -30.4961c5.02344 -7.00781 10.5273 -9.50391 15.5195 -9.50391s10.4961 2.49609 15.5195 9.50391c4.96094 6.97656 8.48047 18.1279 8.48047 30.4961s-3.51953 23.5039 -8.48047 30.4961
c-5.02344 7.00781 -10.5273 9.50391 -15.5195 9.50391zM256 192c21.4404 0 36.6396 -13.7598 43.9844 -26.0322c7.35938 -12.2236 11.6797 -22.6719 15.5195 -26.4639c2.27246 -2.30371 18 -9.02344 34 -17.5039c7.98438 -4.24023 16.1758 -9.31152 22.9766 -17.5195
c6.83105 -8.16016 11.5195 -19.7764 11.5195 -32.4805c0 -30.7197 -25.2803 -56 -56 -56c-13.8564 0 -28.3203 4.48047 -42.4961 8.48047c-14.1924 4.06348 -29.5039 7.51953 -29.5039 7.51953s-15.3115 -3.45605 -29.5361 -7.55176
c-14.1602 -4 -28.624 -8.48047 -42.4795 -8.48047c-30.7207 0 -56 25.2803 -56 56c0 13.0078 4.63965 24.6084 11.5195 33.0078c6.83203 8.40039 14.9443 13.8887 22.9922 18c16.0957 8.20801 31.5361 14.0166 33.9844 16.5283c4.25586 4.22363 8.73535 14.3359 16 26.4961
c7.31152 12.1602 22.1914 26 43.5195 26zM256 160l-0.015625 0.0644531c-10.6885 0 -11.8086 -2.16016 -16.4805 -10c-4.75195 -7.84082 -8.27148 -21.7285 -20 -33.5205c-13.5195 -13.5195 -30.0957 -15.9199 -42 -22
c-5.95215 -3.02441 -10.8477 -6.24023 -13.5039 -9.48828c-2.65625 -3.26367 -4 -6.5752 -4 -13.0234c0 -13.4404 10.5596 -24 24 -24c4.63965 0 19.584 3.51953 33.5039 7.51953c13.9199 3.95215 25.4404 8.48047 38.4961 8.48047s24.5762 -4.52832 38.4961 -8.48047
c13.9199 -4 28.8643 -7.51953 33.5039 -7.51953c13.4404 0 24 10.5596 24 24c0 5.66406 -1.23242 8.6875 -4 12c-2.78418 3.32812 -7.42383 6.76758 -13.5039 10c-12.1445 6.46387 -28.8164 9.34375 -42.0156 22.4639c-11.6162 11.6318 -15.2002 25.0879 -20 33.0078
c-4.75293 7.93652 -5.9209 10.4961 -16.4805 10.4961z" />
    <glyph glyph-name="uniF184" unicode="&#xf184;" 
d="M80 368h272v-305.008l68.4805 68.5273l23.0391 -23.0391l-96 -96l-11.5195 -10.9922l-11.5195 10.9756l-96 96l23.0391 23.04l68.4805 -68.5117v273.008h-240v32z" />
    <glyph glyph-name="uniF1D5" unicode="&#xf1d5;" 
d="M228 384h64c8.36816 0 16.96 -2.97559 22.9922 -8.99219c6.04785 -6.04785 9.00781 -14.6562 9.00781 -23.0078v-16h96v-32h-16v-256c0 -26.3203 -21.6797 -48 -48 -48h-192c-26.3203 0 -48 21.6797 -48 48v256h-16v32h96v16c0 8.35156 2.95996 16.96 8.99219 22.9922
c6.04785 6.04785 14.6562 9.00781 23.0078 9.00781zM228 352v-16h64v16h-64zM148 304v-256c0 -8.87988 7.12012 -16 16 -16h192c8.87988 0 16 7.12012 16 16v256h-224zM180 256h32v-176h-32v176zM244 256h32v-176h-32v176zM308 256h32v-176h-32v176z" />
    <glyph glyph-name="uniF169" unicode="&#xf169;" 
d="M192 368c28 0 47.04 -21.2803 59.5195 -38.9922c1.64844 -2.36816 3.00879 -4.6875 4.48047 -7.00781c1.47168 2.32031 2.83203 4.62402 4.48047 6.99219c12.4795 17.7275 31.5195 39.0078 59.5195 39.0078c26.3203 0 48 -21.6797 48 -48
c0 -5.64844 -1.16797 -10.9443 -3.00781 -16h83.0078v-96h-16v-208h-352v208h-16v96h83.0078c-1.83984 5.05566 -3.00781 10.3516 -3.00781 16c0 26.3203 21.6797 48 48 48zM192 336c-9.04004 0 -16 -6.95996 -16 -16s6.95996 -16 16 -16h37.0078
c-1.91992 3.31152 -1.56738 3.51953 -4 6.99219c-10.0322 14.2881 -22.9922 25.0078 -33.0078 25.0078zM320 336c-10 0 -22.9756 -10.752 -33.0078 -24.9922c-2.43262 -3.48828 -2.08008 -3.71191 -4 -7.00781h37.0078c9.04004 0 16 6.95996 16 16s-6.95996 16 -16 16z
M96 272v-32h144v16h32v-16h144v32h-320zM112 208v-176h128v160h32v-160h128v176h-288z" />
    <glyph glyph-name="uniF16B" unicode="&#xf16b;" 
d="M256 376.992v0.0322266l14.4961 -35.0566l128 -304l14.5117 -33.9834l-34.5117 13.0078l-122.496 46l-122.496 -45.9844l-34.5117 -13.0078l14.5117 34l128 304zM256 295.504v0.015625l-99.0078 -235.552l93.5039 35.0078l5.50391 2l5.50391 -2l93.5039 -34.9912z" />
    <glyph glyph-name="uniF100" unicode="&#xf100;" 
d="M64 336h35.5195c14.6729 0 27.4248 -9.75977 30.9922 -24l41.9688 -168h199.52l38.4961 144h33.5039l-41.4717 -152.48c-3.79199 -13.9199 -16.0645 -23.5195 -30.5127 -23.5195h-199.52c-14.6719 0 -27.4238 9.75977 -30.9922 24l-41.9844 168h-35.5195
c-8.83203 0 -16 7.16797 -16 16s7.16797 16 16 16zM352 112c26.3203 0 48 -21.6797 48 -48s-21.6797 -48 -48 -48s-48 21.6797 -48 48s21.6797 48 48 48zM208 112c26.3203 0 48 -21.6797 48 -48s-21.6797 -48 -48 -48s-48 21.6797 -48 48s21.6797 48 48 48zM256 336h32v-48
h48v-32h-48v-48h-32v48h-48v32h48v48zM208 80c-9.02441 0 -16 -6.97559 -16 -16s6.97559 -16 16 -16s16 6.97559 16 16s-6.97559 16 -16 16zM352 80c-9.02441 0 -16 -6.97559 -16 -16s6.97559 -16 16 -16s16 6.97559 16 16s-6.97559 16 -16 16z" />
    <glyph glyph-name="uniF163" unicode="&#xf163;" 
d="M352 400h112v-112h-32v56.9922l-54.4961 -53.9844c14.4316 -19.2637 22.4961 -42.5273 22.4961 -67.0078c0 -29.9199 -11.8398 -57.8242 -32.9922 -79.0078c-2.95996 -2.94434 -5.80762 -5.9043 -9.00781 -8.51172c1.32812 7.67969 2 15.5518 2 23.5195
c0 8.57617 -0.959961 17.248 -2.49609 25.5039c6.57617 11.7764 10.4961 24.6562 10.4961 38.4961c0 21.3604 -8.40039 41.3916 -23.5195 56.4805c-15.0889 15.1191 -35.1045 23.5195 -56.4805 23.5195s-41.4082 -8.36816 -56.4805 -23.5195
c-15.1191 -15.1045 -23.5195 -35.1045 -23.5195 -56.4805s8.38379 -41.4082 23.4883 -56.4961c12.6396 -12.6396 28.5596 -20.2715 46 -22.5117c-2.56055 -9.18457 -7.07227 -17.5684 -13.9844 -24.5117c-1.63184 -1.63281 -3.67969 -3.08887 -5.50391 -4.48047
c-18.4961 5.07227 -35.0723 15.0723 -48.9922 28.9922c-21.168 21.1836 -33.0078 49.0879 -33.0078 79.0078s11.8721 57.8721 32.9922 78.9922c21.1514 21.168 49.0879 33.0078 79.0078 33.0078c24.4805 0 47.7598 -8.06445 67.0078 -22.4961l54 54.4961h-57.0078v32z
M254 268c18.4961 -5.07227 35.0723 -15.0723 48.9922 -28.9922c21.168 -21.1836 33.0078 -49.0879 33.0078 -79.0078s-11.8398 -57.8564 -32.9922 -78.9922c-21.1514 -21.168 -49.0879 -33.0078 -79.0078 -33.0078c-24.5439 0 -47.7275 8 -66.9922 22.4805
l-27.0078 -26.9766l32 -32l-22.4805 -23.04l-32 32l-32 -32l-23.0391 23.04l32 32l-32 32l23.0391 22.4961l32 -32l26.9766 26.9922c-14.4316 19.2637 -22.4961 42.5273 -22.4961 67.0078c0 29.9199 11.8721 57.8564 32.9922 78.9922
c2.97559 2.95996 5.80762 5.91992 9.00781 8.52734c-1.32812 -7.67969 -2 -15.5518 -2 -23.5195c0 -8.57617 0.959961 -17.248 2.49609 -25.5039c-6.57617 -11.7764 -10.4961 -24.6562 -10.4961 -38.4961c0 -21.376 8.38379 -41.4082 23.5195 -56.4805
c15.0889 -15.1191 35.1045 -23.5195 56.4805 -23.5195s41.4082 8.36816 56.5117 23.5361c15.1201 15.1035 23.5205 35.1201 23.5205 56.4795c0 21.3604 -8.40039 41.3926 -23.5205 56.4805c-12.6396 12.6396 -28.5596 20.2559 -46 22.4961
c2.56055 9.16797 7.07227 17.584 13.9844 24.5273c1.63184 1.63281 3.67969 3.08887 5.50391 4.48047z" />
    <glyph glyph-name="uniF1BC" unicode="&#xf1bc;" 
d="M197.008 375.52h-0.0478516l18.5596 -45.5195c12.8008 3.75977 26.4805 6 40.4805 6c14.0156 0 27.6797 -2.24023 40.4639 -6.03223l18.4961 45.5205l29.4883 -12l-18.5127 -45.9844c23.2646 -13.0557 42.4805 -32.2715 55.5205 -55.5195l46.0156 18.4795l12 -29.4883
l-45.5039 -18.5273c3.75977 -12.7998 6 -26.4805 6 -40.4805s-2.24023 -27.6797 -6 -40.4795l45.5205 -18.4961l-12 -29.4883l-45.9844 18.5117c-13.0557 -23.2637 -32.2715 -42.4795 -55.5195 -55.5195l18.4795 -46.0156l-29.5039 -12l-18.5117 45.5039
c-12.7998 -3.76074 -26.4805 -6 -40.4805 -6c-14.0322 0 -27.6797 2.22363 -40.4795 6l-18.5127 -45.5205l-29.4717 12l18.5117 45.9844c-23.1514 13.0879 -42.5117 32.3193 -55.5195 55.5195l-46.0156 -18.4795l-12 29.5039l45.5195 18.5273
c-3.75977 12.8008 -6 26.4805 -6 40.4805c0 14.0156 2.24023 27.6797 6 40.5117l-45.5195 18.5127l12 29.4717l45.9834 -18.5117c13.0557 23.2637 32.2725 42.4795 55.5205 55.5195l-18.4805 46.0156zM256 304c-62.0479 0 -112 -49.9521 -112 -112s49.9521 -112 112 -112
s112 49.9521 112 112s-49.9521 112 -112 112zM256 256c35.1523 0 64 -28.8477 64 -64s-28.8477 -64 -64 -64s-64 28.8477 -64 64s28.8477 64 64 64zM256 224c-17.8564 0 -32 -14.1436 -32 -32s14.1436 -32 32 -32s32 14.1436 32 32s-14.1436 32 -32 32z" />
    <glyph glyph-name="uniF187" unicode="&#xf187;" 
d="M64 368h96v-96h-96v96zM96 336v-32h32v32h-32zM192 336h240v-32h-240v32zM64 240h96v-96h-96v96zM96 208v-32h32v32h-32zM192 208h240v-32h-240v32zM64 112h96v-96h-96v96zM96 80v-32h32v32h-32zM192 80h240v-32h-240v32z" />
    <glyph glyph-name="uniF1DF" unicode="&#xf1df;" 
d="M256 390.496v0.015625l11.5195 -10.9756l112 -112l-23.0391 -23.04l-84.4805 84.5117v-265.008h-32v265.024l-84.4805 -84.5605l-23.0391 23.04l112 112zM112 32h288v-32h-288v32z" />
    <glyph glyph-name="uniF1AA" unicode="&#xf1aa;" 
d="M256 384c57.1201 0 108.96 -25.2803 144 -65.5039v49.5039h32v-112h-112v32h63.0078c-28.8643 38.5596 -75.168 64 -127.008 64c-68.6396 0 -125.184 -42.2402 -148.496 -102l-29.5039 12c27.8721 71.4404 96.2402 122 178 122zM404.48 134h0.015625l29.5039 -12
c-27.8721 -71.4404 -96.2402 -122 -178 -122c-57.6797 0 -108.96 25.8242 -144 65.5039v-49.5039h-32v112h112v-32h-63.5195c29.0078 -38.208 75.1035 -64 127.52 -64c68.6396 0 125.184 42.2402 148.48 102z" />
    <glyph glyph-name="uniF11A" unicode="&#xf11a;" 
d="M447.008 372h-0.015625l12 -68h-32.5117l-5.47266 31.0078l-181.008 -31.0078h-189.52zM32 288h448v-256h-448v256zM111.008 256h-0.015625c0.527344 -2.6084 1.00781 -5.23242 1.00781 -8c0 -22.0801 -17.9199 -40 -40 -40c-2.76758 0 -5.3916 0.463867 -8 0.992188v-98
c2.6084 0.527344 5.23242 1.00781 8 1.00781c22.0801 0 40 -17.9199 40 -40c0 -2.76758 -0.463867 -5.3916 -0.992188 -8h290c-0.527344 2.6084 -1.00781 5.23242 -1.00781 8c0 22.0801 17.9199 40 40 40c2.76758 0 5.3916 -0.463867 8 -1.00781v98.0156
c-2.6084 -0.527344 -5.23242 -1.00781 -8 -1.00781c-22.0801 0 -40 17.9199 -40 40c0 2.76758 0.463867 5.3916 1.00781 8h-290zM256 240c44 0 80 -36 80 -80s-36 -80 -80 -80s-80 36 -80 80s36 80 80 80zM256 208c-26.7197 0 -48 -21.2803 -48 -48s21.2803 -48 48 -48
s48 21.2803 48 48s-21.2803 48 -48 48z" />
    <glyph glyph-name="uniF18B" unicode="&#xf18b;" 
d="M80 352h352c26.3203 0 48 -21.6797 48 -48v-224c0 -26.3203 -21.6797 -48 -48 -48h-352c-26.3203 0 -48 21.6797 -48 48v224c0 26.3203 21.6797 48 48 48zM80 320c-9.04004 0 -16 -6.95996 -16 -16v-224c0 -9.04004 6.95996 -16 16 -16h352c9.04004 0 16 6.95996 16 16
v224c0 9.04004 -6.95996 16 -16 16h-352zM192 304c23.7764 0 45.8242 -7.28027 64 -20c18.0801 12.6719 40.1924 20 64 20c61.6641 0 112 -50.3359 112 -112s-50.3359 -112 -112 -112c-23.8076 0 -45.9199 7.32812 -64 20c-18.1758 -12.7197 -40.2236 -20 -64 -20
c-61.6641 0 -112 50.3359 -112 112s50.3359 112 112 112zM192 272c-44.3682 0 -80 -35.6318 -80 -80s35.6318 -80 80 -80c20.5283 0 38.8799 7.95215 53.0078 20.4805c-6.55957 8.23926 -11.9199 17.4395 -15.5195 27.5195h35.5195
c2.22461 5.08789 4.36816 10.4004 5.48828 16h-44.9922c-0.864258 5.21582 -1.50391 10.5283 -1.50391 16s0.608398 10.7842 1.50391 16h44.9922c-1.13574 5.59961 -3.24805 10.9121 -5.48828 16h-35.5195c3.59961 10.0801 8.95996 19.2803 15.5195 27.5195
c-14.1279 12.5449 -32.4961 20.4805 -53.0078 20.4805zM320 272c-14.6396 0 -28.1924 -4.14355 -40 -10.9922c15.04 -19.0879 24 -42.9277 24 -69.0078s-8.95996 -49.9199 -24 -68.9922c11.8076 -6.84766 25.3604 -11.0078 40 -11.0078c44.3838 0 80 35.6162 80 80
s-35.6162 80 -80 80z" />
    <glyph glyph-name="uniF12F" unicode="&#xf12f;" 
d="M110.496 342.496l11.0078 -10.9766l134.496 -134.527l134.512 134.479l10.9922 10.9922l11.5205 -10.9756l62.5117 -62.4805l10.9922 -11.5195l-10.9766 -11.0078l-208 -208l-11.5195 -11.4883l-11.5205 11.4883l-208 208l-10.9922 10.9912l10.9766 11.5205
l62.5117 62.5117zM110.016 297.008l-0.015625 0.0166016l-39.0078 -39.0088l185.008 -185.535l185.024 185.52l-39.0088 39.0078l-134.479 -134l-11.5205 -11.0078l-11.5195 10.9922z" />
    <glyph glyph-name="uniF1E9" unicode="&#xf1e9;" 
d="M80 400h320v-112h-32v80h-256v-80h-32v112zM112 256h32l16 -32l16 32h32l-32 -64l32 -64h-32l-16 32l-16 -32h-32l32 64zM224 256h32v-96h32v-32h-64v128zM344 256v-0.015625c11.7441 0 22.4316 -4.59277 29.5039 -12c7.05566 -7.4082 10.4961 -17.0879 10.4961 -26.4805
h-32c0 1.75977 -0.543945 3.48828 -1.50391 4.48047c-0.927734 0.991211 -2.22363 2 -6.49609 2c-3.47168 0 -8 -4.52832 -8 -8c0 -3.47266 4.52832 -8 8 -8c22.1279 0 40 -17.8721 40 -40c0 -20.8008 -17.2803 -40 -40 -40c-11.7119 0 -22.6084 3.71191 -30 11.5195
c-7.3916 7.79199 -10 17.9365 -10 26.9922h32c0 -3.71191 0.78418 -4.78418 0.992188 -4.99219c0.223633 -0.223633 1.12012 -1.50391 7.00781 -1.50391c6.08008 0 8 3.2002 8 8c0 3.47168 -4.52832 8 -8 8c-22.1279 0 -40 17.8721 -40 40s17.8721 40 40 40zM80 96h32v-80
h256v80h32v-112h-320v112z" />
    <glyph glyph-name="uniF1AE" unicode="&#xf1ae;" 
d="M148.48 339.52l23.0391 -23.0391l-108.512 -108.48h386l-108.576 108.48l23.04 23.0391l136 -136l10.9922 -11.5195l-10.9756 -11.5195l-136 -136l-22.9922 23.0391l108.479 108.48h-386l108.561 -108.48l-23.04 -23.0391l-136 136l-10.9922 11.5195l10.9766 11.5195z
" />
    <glyph glyph-name="uniF1D0" unicode="&#xf1d0;" 
d="M128 352h256v-32h-112v-224h-32v224h-112v32zM160 104v-40h192v40l70 -56l-70 -56v40h-192v-40l-70 56z" />
    <glyph glyph-name="uniF13B" unicode="&#xf13b;" 
d="M80 400v-0.015625h214.496l5.02344 -4.48047l96 -96l4.48047 -5.00781v-310.496h-320v416zM112 368v-352h256v256h-96v96h-160zM304 344.992v0.015625v-41.0078h41.0078zM240 240h32l-32 -192h-32zM179.52 202h0.0166016l24.96 -20l-31.4883 -38l31.4561 -38l-24.96 -20
l-40 48l-8.51172 10l8.52734 10zM300.48 202h0.03125l40 -48l8.48047 -10l-8.51172 -10l-40 -48l-25.0088 20l31.5205 38l-31.4727 38z" />
    <glyph glyph-name="uniF1D3" unicode="&#xf1d3;" 
d="M164.48 363.52v0.0166016l23.0391 -23.04l-64 -64l-11.5195 -10.9922l-11.5195 10.9766l-32 32l23.0391 22.9912l20.4805 -20.4795zM240 336h208v-32h-208v32zM164.48 235.52v0.0166016l23.0391 -23.04l-64 -64l-11.5195 -10.9922l-11.5195 10.9766l-32 32
l23.0391 23.0391l20.4805 -20.5439zM240 208h208v-32h-208v32zM164.48 107.52v0.0166016l23.0391 -23.04l-64 -64l-11.5195 -10.9922l-11.5195 10.9766l-32 32l23.0391 22.9912l20.4805 -20.4795zM240 80h208v-32h-208v32z" />
    <glyph glyph-name="uniF1C0" unicode="&#xf1c0;" 
d="M240 384h32v-192h-32v192zM192 372.992v0.015625v-34.5117c-56.416 -24.7363 -96 -81.0557 -96 -146.496c0 -88.2236 71.7764 -160 160 -160s160 71.7764 160 160c0 65.4404 -39.584 121.76 -96 146.496v34.5117c74.4639 -26.416 128 -97.5996 128 -181.008
c0 -105.872 -86.1279 -192 -192 -192s-192 86.1279 -192 192c0 83.3916 53.5361 154.592 128 180.992z" />
    <glyph glyph-name="uniF1A7" unicode="&#xf1a7;" 
d="M80 368h128v-128h-64v-32h-32v32h-32v128zM208 240h96v128h128v-128h-32v-32h-32v32h-32v-32h-64v-32h32v-32h-96v-128h-128v128h96v32h64v32h-32v32zM400 208h32v-32h-32v32zM400 176v-32h-32v32h32zM400 144h32v-32h-32v32zM400 112v-32h-16v-32h-32v32h-64v-64h-32v96
h80v32h32v-32h32zM352 48v-32h-32v32h32zM368 176h-32v32h32v-32zM176 176h-32v32h32v-32zM112 208v-32h-32v32h32zM240 368h32v-32h16v-32h-16v-48h-32v16h-16v32h16v64zM112 336v-64h64v64h-64zM336 336v-64h64v64h-64zM128 320h32v-32h-32v32zM352 320h32v-32h-32v32z
M112 112v-64h64v64h-64zM128 96h32v-32h-32v32zM400 48h32v-32h-32v32z" />
    <glyph glyph-name="uniF1C7" unicode="&#xf1c7;" 
d="M112 352h288v-32h-128v-128h80v-32h-80v-128h-32v128h-80v32h80v128h-128v32z" />
    <glyph glyph-name="uniF174" unicode="&#xf174;" 
d="M109.008 409.504h-0.015625l33.5039 -33.5039l-22.4961 -22.4961l-33.5195 33.5039zM403.008 409.504h-0.015625l22.5117 -22.5117l-33.5039 -33.4883l-22.5117 22.4961zM256 399.52c78.9443 0.736328 144 -64.4795 144 -143.52c0 -43.2803 -20 -80.96 -46.4961 -107.488
c-19.8076 -18.3838 -32 -42.0312 -32 -65.4873v-19.0088h-1.50391v-64h-36.4805c-5.56738 -9.55176 -15.7275 -16 -27.5195 -16s-21.9521 6.44824 -27.5195 16h-36.4805v96c-3.24805 17.8721 -12.7041 35.3926 -28 48.4805c-35.7275 30.3682 -57.168 77.5195 -50 129.52
c8.97559 64.6084 60.624 117.04 125.52 124.48c0.160156 0.0322266 0.320312 0 0.480469 0c5.37598 0.65625 10.7197 0.959961 16 1.02344zM256 367.52l-0.0322266 -0.015625c-4.12793 -0.0634766 -8.28809 -0.479492 -12.4795 -1.02344
c-50.1123 -5.55273 -91.0078 -46.0801 -98 -96.4805c-5.63184 -40.832 11.2158 -76.9922 39.4873 -100.992c22.2246 -19.04 33.9844 -45.584 37.5049 -73.0078h69.9834c3.79199 28.6719 17.5205 54.9443 39.04 75.0078l-0.511719 0.511719
c21.4883 21.4727 37.0078 50.9766 37.0078 84.4805c0 61.7598 -50.1602 112.384 -112 111.52zM32 256h48v-32h-48v32zM432 256h48v-32h-48v32zM120 126.496l22.4805 -22.4961l-33.4727 -33.5039l-22.5117 22.5117zM392 126.496l33.5039 -33.4883l-22.5117 -22.5117
l-33.4883 33.5039zM224 64v-32h64v32h-64z" />
    <glyph glyph-name="uniF144" unicode="&#xf144;" 
d="M128 384h32v-265.008l169.008 169.008h-153.008v32h185.008l59.4727 59.5361l23.0391 -23.04l-59.5195 -59.4883v-185.008h-32v153.008l-169.008 -169.008h265.008v-32h-64v-64h-32v64h-224v224h-64v32h64v64z" />
    <glyph glyph-name="uniF105" unicode="&#xf105;" 
d="M48 336h416v-32h-416v32zM112 272h288v-32h-288v32zM48 208h416v-32h-416v32zM112 144h288v-32h-288v32zM48 80h416v-32h-416v32z" />
    <glyph glyph-name="uniF158" unicode="&#xf158;" 
d="M96 384h320v-128l-32 32v64h-256v-320h256v64l32 32v-128h-320v384zM358.496 272h-0.015625l69.0078 -68.4805l10.9922 -11.5195l-10.9766 -11.5195l-69.0078 -68.4805l-22.4961 22.4961l40.9922 41.5039h-154.496v32h154.512l-41.0078 41.5039z" />
    <glyph glyph-name="uniF151" unicode="&#xf151;" 
d="M240 384h32v-265.024l84.4805 84.5605l23.0391 -23.04l-112 -112l-11.5195 -10.9922l-11.5195 10.9766l-112 112l23.0391 23.0391l84.4805 -84.5273v265.008zM112 16h288v-32h-288v32z" />
    <glyph glyph-name="uniF172" unicode="&#xf172;" 
d="M256 406.496v0.015625l11.5195 -10.9756l208 -208l-23.0391 -23.04l-20.4805 20.5117v-185.008h-144v160h-64v-160h-144v185.008l-20.4805 -20.5439l-23.0391 23.04l208 208zM256 360.992v0.015625l-144 -144v-185.008h80v160h128v-160h80v184.992z" />
    <glyph glyph-name="uniF12A" unicode="&#xf12a;" 
d="M256 400c114.688 0 208 -93.3115 208 -208s-93.3115 -208 -208 -208s-208 93.3115 -208 208s93.3115 208 208 208zM256 368c-42.3359 0 -81.1523 -14.6719 -111.52 -39.5195l245.52 -250.48c26.1602 30.7041 42 70.3838 42 114c0 97.3916 -78.6084 176 -176 176zM122 306
c-26.1602 -30.7041 -42 -70.3838 -42 -114c0 -97.3916 78.6084 -176 176 -176c42.3359 0 81.1523 14.6719 111.52 39.5195z" />
    <glyph glyph-name="uniF131" unicode="&#xf131;" 
d="M316 406.496l11.5195 -10.9766l57.4727 -58.0156l11.0078 -11.0078l-10.9922 -11.4883l-123.008 -123.008l123.008 -123.008l11.0078 -11.4883l-10.9912 -11.0078l-57.4883 -58.0156l-11.5205 -10.9922l-11.5195 10.9756l-192 192l-10.9922 11.5205l10.9766 11.5195
l192 192zM316 360.992v0.015625l-169.008 -169.008l169.008 -169.024l35.0078 35.0088l-123.008 122.479l-11.5195 11.5205l11.5195 11.5195l123.008 122.496z" />
    <glyph glyph-name="uniF1D6" unicode="&#xf1d6;" 
d="M112 384c20.4316 0 34.4482 -9.34375 42 -16h204c7.55176 6.65625 21.5684 16 42 16c15.1035 0 30.6885 -5.69629 43.0244 -16.4961c12.3672 -10.832 21.0078 -27.4883 21.0078 -47.5195c0 -16.9922 -7.13574 -31.5361 -16 -43.0088
c-8.86426 -11.4561 -19.6162 -20.5596 -29.5039 -29.4717c-19.7764 -17.8721 -34.4961 -32.5439 -34.4961 -55.5195c0 -2.43262 2.38379 -8.35254 5.50391 -12.9922c3.10352 -4.67188 6.01562 -7.48828 6.01562 -7.48828l-23.04 -22.5117s-5.10352 5.15137 -10 12.5117
c-4.30371 6.46387 -8.89551 14.9922 -10.0156 25.9844c-1.95215 -5.48828 -3.91992 -11.168 -6 -16.4805c-11.1045 -28.3682 -23.6162 -53.9043 -38.0156 -73.0078c-5.2168 -6.95996 -10.9443 -13.168 -16.9609 -18.4805
c33.5205 -1.87109 60.4805 -29.5518 60.4805 -63.5195v-16h-192v16c0 33.5996 26.4482 61.1201 59.4883 63.4883c-5.91992 5.31152 -11.2803 11.5195 -16.4805 18.4961c-14.3359 19.168 -26.9756 44.6074 -38.0156 73.0078
c-1.95215 4.97559 -3.66406 10.3359 -5.47266 15.4883c-1.2793 -10.5283 -5.83984 -18.7041 -10 -25.0088c-4.89551 -7.32812 -9.9834 -12.4795 -9.9834 -12.4795l-23.04 22.5117s2.89551 2.84766 6 7.48828c3.10352 4.6875 5.50391 10.5762 5.50391 13.0078
c0 22.96 -14.7197 37.6318 -34.4961 55.5039c-9.8877 8.92773 -20.6396 18.0322 -29.5039 29.4883c-8.86426 11.4883 -16 26.0156 -16 43.0078c0 20 8.67188 36.6719 20.9922 47.5195c12.3516 10.8008 27.9199 16.4805 43.0078 16.4805zM112 352
c-6.94434 0 -15.3604 -3.13574 -21.5039 -8.48047c-6.14453 -5.40723 -10.4961 -12.3516 -10.4961 -23.5195c0 -8.67188 2.84766 -15.5195 9.00781 -23.5039c6.12793 -7.95215 15.376 -16.3682 25.4883 -25.4883c9.34375 -8.44824 20 -17.9834 28.5117 -29.5039
c-8.92773 36.3525 -14.5596 73.376 -15.0078 106.016c-3.55176 2.08008 -8.41602 4.48047 -16 4.48047zM400 352l0.015625 0.015625c-7.58398 0 -12.4473 -2.39941 -16 -4.47949c-0.479492 -33.1201 -6.30371 -70.4004 -15.5195 -107.04
c8.62402 11.9043 19.4082 21.8721 29.0078 30.5117c10.1279 9.15234 19.3604 17.5361 25.4883 25.4727c6.12793 7.96777 9.00781 14.8311 9.00781 23.5195c0 11.168 -4.35156 18.1123 -10.4961 23.5195c-6.14355 5.36035 -14.5596 8.48047 -21.5039 8.48047zM162 336
c2.44824 -47.3115 14.3516 -105.504 33.0078 -153.504c10.3037 -26.5439 22.4004 -49.4717 33.9844 -64.9922c11.5996 -15.5195 21.8076 -21.5039 26.5273 -21.5039c4.7041 0 15.3604 6.03223 26.9922 21.5039s23.6318 38.4805 33.9844 64.9922
c18.7842 47.9355 31.0557 105.952 33.5039 153.504h-188zM240 288h32v-80h-32v80zM224 48c-11.4717 0 -19.3604 -7.08789 -24.9922 -16h114c-5.64746 8.91211 -13.5361 16 -25.0078 16h-64z" />
    <glyph glyph-name="uniF130" unicode="&#xf130;" 
d="M256 400c114.688 0 208 -93.3115 208 -208s-93.3115 -208 -208 -208s-208 93.3115 -208 208s93.3115 208 208 208zM256 368c-97.3916 0 -176 -78.6084 -176 -176s78.6084 -176 176 -176s176 78.6084 176 176s-78.6084 176 -176 176zM171.52 243.52v-0.03125
l84.4805 -84.5127l84.4805 84.5605l23.0391 -23.04l-96 -96l-11.5195 -10.9922l-11.5195 10.9766l-96 96z" />
    <glyph glyph-name="uniF150" unicode="&#xf150;" 
d="M80 368h352v-352h-352v352zM112 336v-288h288v288h-288zM171.52 243.52v-0.03125l84.4805 -84.5127l84.4805 84.5605l23.0391 -23.04l-96 -96l-11.5195 -10.9922l-11.5195 10.9766l-96 96z" />
    <glyph glyph-name="uniF193" unicode="&#xf193;" 
d="M137.504 368h38.4961v-160h-32v102.496c-10.8799 -11.6963 -25.9844 -22.4961 -48 -22.4961v32c15.6797 0 23.6484 7.67969 30 17.0078c6.35156 9.2959 9.00781 18.5117 9.00781 18.5117zM352 368h32v-298.992l41.5039 41.4883l22.4961 -22.4961l-68.4805 -68.9922
l-11.5195 -11.0078l-11.5195 10.9922l-68.4805 69.0078l22.4961 22.4961l41.5039 -41.5039v299.008zM136 176h16c30.7842 0 56 -25.2158 56 -56c0 -21.5195 -13.7598 -38.8477 -30 -48.9756c-17.7275 -10.9121 -31.2324 -16.96 -43.0078 -23.0088h73.0078v-32h-128v16
c0 9.28027 4.38379 18.4482 9.98438 24.4805c5.64746 6.06348 12.2881 9.95215 19.5195 14c14.4316 8.0957 31.7441 15.8398 51.4883 28c9.35938 5.82422 15.0078 14.208 15.0078 21.5039c0 14.0156 -9.98438 24 -24 24h-16c-14.0156 0 -24 -9.98438 -24 -24v-8h-32v8
c0 30.7842 25.2158 56 56 56z" />
    <glyph glyph-name="uniF1CC" unicode="&#xf1cc;" 
d="M336 400c21.8721 0 42.1436 -5.64844 59.0078 -14.9922l18.5117 -10l-15.0391 -15.0078l-68.4805 -68.9922l24.9922 -24.9922l69.0078 68.4805l14.9922 15.0078l10 -18.4961c9.37598 -16.8643 15.0078 -37.1357 15.0078 -59.0078c0 -70.8799 -57.1201 -128 -128 -128
c-3.74414 0 -8.86426 0.591797 -13.5039 1.00781l-136.992 -137.008c-31.5039 -31.4883 -82.0156 -31.4883 -113.504 0s-31.4883 81.9844 0 113.504l137.008 136.992c-0.416016 4.65625 -1.00781 9.74414 -1.00781 13.5039c0 70.8799 57.1201 128 128 128zM336 368
l-0.015625 -0.015625c-53.9199 0 -96 -42.0801 -96 -96c0 -6.40039 0.03125 -11.5205 0.991211 -15.5205l2.52832 -8.47949l-6.51172 -6.49609l-142.512 -142.496c-19.5205 -19.5205 -19.6807 -48.3203 -0.480469 -68l0.511719 -0.511719
c19.6807 -19.6807 48.7998 -19.6807 68.4805 0l142.512 142.512l6.49609 6.51172l8.48047 -2.49609c4 -1.00781 9.11914 -1.00781 15.5195 -1.00781c53.9199 0 96 42.0801 96 96c0 7.77637 -3.34375 13.5684 -4.99219 20.4805l-60.5117 -60.4805l-11.4883 -11.5195
l-11.0078 11.5195l-48 48l-11.5195 10.9922l11.5195 11.5195l60.4805 60.4805c-6.91211 1.64746 -12.7041 5.00781 -20.4805 5.00781z" />
    <glyph glyph-name="uniF112" unicode="&#xf112;" 
d="M240 384h32v-321.008l68.4805 68.4961l23.0391 -22.4961l-96 -96l-11.5195 -11.5205l-11.5195 11.5205l-96 96l23.0391 22.5117l68.4805 -68.5117v321.008z" />
    <glyph glyph-name="uniF13E" unicode="&#xf13e;" 
d="M48 352h416v-320h-153.008l-43.4561 -43.5039l-11.5205 -10.9922l-11.5195 10.9766l-43.4883 43.5195h-153.008v320zM80 320v-256.016h134.496l5.02344 -4.5127l36.4805 -36.4795l36.4961 36.5273l5.00781 4.48047h134.496v256h-352zM144 272h224v-32h-224v32zM144 208
h224v-32h-224v32zM144 144h160v-32h-160v32z" />
    <glyph glyph-name="uniF18E" unicode="&#xf18e;" 
d="M256 400c107.136 0 194.4 -79.7119 206.48 -183.536l1.02344 -12.4795l-11.04 -4.48047c-0.479492 -0.208008 -4.47949 -5.02344 -4.47949 -7.51953s4 -7.3125 4.47949 -7.52051l11.04 -4.47949l-1.00781 -12.4805c-12.0957 -103.792 -99.376 -183.52 -206.496 -183.52
c-12.7363 0 -23.5039 1.91992 -34.4961 3.51953l-12 1.48828l-1.50391 12.5117c-0.736328 7.37598 -8.52832 14.4961 -16 14.4961c-4.27246 0 -7.98438 -1.98438 -12.5117 -6.51172l-8.48047 -8.48047l-10.5273 5.48828c-67.7129 34.7363 -112.48 105.872 -112.48 185.504
c0 46.752 15.6797 88.5439 41.5039 122.992l8 11.0078l12 -6c-0.624023 0.320312 -0.704102 0 2.49609 0c8.87988 0 16 7.12012 16 16c0 3.2002 -0.320312 3.13574 0 2.49609l-6 12l10.9922 8c34.4639 25.8242 76.2559 41.5039 123.008 41.5039zM242.496 367.52v-0.015625
c-30.8164 -2.57617 -58.0801 -13.9355 -82.4961 -30.4961v-1.00781c0 -26.3203 -21.6797 -48 -48 -48h-0.992188c-18.9434 -27.9043 -31.0078 -59.6162 -31.0078 -96c0 -64.3838 35.3604 -121.392 88 -152c6.92773 4.32031 14.5596 8 24 8
c19.1201 0 33.3115 -12.8643 40.9922 -29.4717c3.71191 -0.543945 7.00781 -1.02441 10.5273 -1.50391c6.32031 4.28711 18.9121 13.8076 33.5205 31.4873l4.95996 6h12.5117c3.58398 0 3.00781 -0.576172 3.00781 3.00781c0 1.24805 0.0966797 0.800781 -1.50391 4l-4 8
l4.48047 7.48828c16.0479 26.2725 30 65.1201 30 115.008c0 3.71191 -1.50391 11.9365 -1.50391 20.9922v9.50391l8.51172 4.5127c1.63184 0.799805 2.49609 1.87207 2.49609 3.47168c0 2.51172 -0.288086 3.15234 -2.49609 3.51953l-9.50391 1.52051l-2.99219 8.95996
c-1.96777 5.82422 -3.72754 12.2236 -5.00781 16l-3.00781 9.50391l7.00781 6.99219c5.45605 5.47168 6.49609 6.73535 6.49609 11.0078c0 7.47168 -5.53613 13.0078 -12.9922 13.0078h-12l-4.51172 7.47266c-21.9844 35.4551 -46.0957 53.4395 -54.4961 59.0391z
M292.992 364h0.015625c8.62402 -9.31152 17.7441 -20.4482 26.5117 -33.5039c21.3447 -3.34375 38.9922 -20.2881 38.9922 -42.4961c0 -10.6719 -4.83203 -18.624 -10.0156 -25.5039c0.383789 -1.28027 1.18359 -2.36816 1.50391 -3.52051
c10.1602 -6.39941 18 -16.2871 18 -28.4795c0 -9.50391 -4.65625 -17.248 -10.4961 -23.4883c0.463867 -4.22363 1.00781 -8.52734 1.00781 -15.0078c0 -52.4639 -13.9199 -94.0479 -31.5195 -125.008c1.07227 -3.18457 2.51172 -5.21582 2.51172 -9.48828
c0 -17.4717 -14.416 -31.3916 -31.4883 -33.5039c-1.21582 -1.36035 -2.33594 -2.20801 -3.51953 -3.51953c69.9844 15.5195 122.624 72.1592 133.984 144c-7.23242 7.35938 -12.4805 16.3838 -12.4805 27.5195s5.24805 20.1602 12.5117 27.5195
c-11.4873 72.3682 -64.752 129.505 -135.52 144.48zM219.52 314.496h0.0166016c2.94434 -0.0322266 5.96777 -0.400391 8.95996 -0.992188l-6 -31.4883c-7.93652 1.56836 -16 -3.19922 -18.4961 -11.5195c-1.98438 -6.62402 3.4082 -14.4316 12 -16.9922l-9.50391 -30.5117
c-23.3926 7.02344 -40.6084 31.6318 -32.9922 57.0078c6.20801 20.7363 25.2158 34.5918 46.0156 34.4961zM139.52 195.504v-0.0322266l12.4805 -29.5039c-3.75977 -1.61621 -4.68848 -5.58398 -5.00781 -5.00781l0.527344 -0.511719v-0.480469
c1.60059 -3.75977 5.56836 -5.53613 8 -4.47949l12.4805 -29.4883c-19.5039 -8.38379 -40.5596 2.65625 -48.9922 20.4805c-0.111328 0.223633 -0.399414 0.287109 -0.511719 0.511719c-0.0478516 0.0957031 0.112305 0.416016 0 0.511719
c-8.97656 19.4561 2.6875 40.1279 21.0234 48zM210.992 142.48h-0.0166016l19.5205 -25.4883c-6.14453 -4.64062 -8.44824 -14.8799 -4.99219 -19.5205c4.6084 -6.12793 14.8965 -7.93555 19.4883 -4.47949l19.0078 -26c-20.9922 -15.7598 -49.4082 -7.96777 -64 11.4883
c-15.7275 20.9912 -8.44824 49.4072 10.9922 64z" />
    <glyph glyph-name="uniF13A" unicode="&#xf13a;" 
d="M240 400c20.1602 0 34.4316 -14.2402 41.5039 -32h118.496v-368h-320v368h118.496c7.07227 17.7598 21.3438 32 41.5039 32zM240 368c-8.87988 0 -16 -7.12012 -16 -16v-16h-48v-32h128v32h-48v16c0 8.87988 -7.12012 16 -16 16zM112 336v-304h256v304h-32v-64h-192v64
h-32z" />
    <glyph glyph-name="uniF1A2" unicode="&#xf1a2;" 
d="M327.52 406.992l-0.015625 -0.0166016l12 -11.4717l120 -120l10.9922 -11.5195l-11.0078 -11.5205c-20.2725 -20.2715 -48.6885 -28.2881 -76.4805 -24.96l-57.0078 -57.0234c10.0322 -41.3926 0.52832 -87.4561 -33.0078 -120.961l-11.4883 -11.5195l-11.0078 11.4883
l-67.4883 67.5195l-132.512 -133.008h-22.4961v22.5117l133.024 132.48l-69.0088 69.0078l-11.5195 10.9756l11.5195 11.5205c30.4482 30.4482 72.96 41.5361 112.48 34.4961l65.0078 65.0078c1.82422 23.3115 9.77637 46.5918 26.4961 64.9922zM331.008 358h-0.015625
c-6.32031 -11.4717 -11.0078 -23.6318 -11.0078 -36.4805v-6.52734l-4.48047 -4.48047l-74 -74.0156l-6.52832 -6.49609l-8.47949 2.48047c-26.208 6.87988 -54.2236 -0.480469 -77.5039 -16.4805l131.023 -131.024c18.5439 26 22.8965 57.8086 13.5039 86l-3.00781 9.48828
l7.00781 7.04004l66.9766 66.9922l6.49609 6.49609l9.00781 -2.48047c14.5439 -3.64746 28.7998 1.02441 42 8.48047z" />
    <glyph glyph-name="uniF1D2" unicode="&#xf1d2;" 
d="M64 384h32v-80h114.992c6.7041 18.4961 24.3359 32 45.0078 32s38.3037 -13.5039 44.9922 -32h147.008v-32h-146.992c-6.7041 -18.4961 -24.3359 -32 -45.0078 -32s-38.3037 13.5039 -44.9922 32h-115.008v-64h226.992c6.7041 18.4961 24.3359 32 45.0078 32
s38.3037 -13.5039 44.9922 -32h35.0078v-32h-34.9922c-6.7041 -18.4961 -24.3359 -32 -45.0078 -32s-38.3037 13.5039 -44.9922 32h-227.008v-64h34.9922c6.7041 18.4961 24.3359 32 45.0078 32s38.3037 -13.5039 44.9922 -32h227.008v-32h-226.992
c-6.7041 -18.4961 -24.3359 -32 -45.0078 -32s-38.3037 13.5039 -44.9922 32h-35.0078v-80h-32v384zM256 304c-9.02441 0 -16 -6.97559 -16 -16s6.97559 -16 16 -16s16 6.97559 16 16s-6.97559 16 -16 16zM368 208c-9.02441 0 -16 -6.97559 -16 -16s6.97559 -16 16 -16
s16 6.97559 16 16s-6.97559 16 -16 16zM176 112c-9.02441 0 -16 -6.97559 -16 -16s6.97559 -16 16 -16s16 6.97559 16 16s-6.97559 16 -16 16z" />
    <glyph glyph-name="uniF176" unicode="&#xf176;" 
d="M96 384h320v-144h-32v112h-256v-320h256v112h32v-144h-320v384zM280 272l22.4961 -22.4961l-41.5039 -41.5039h187.008v-32h-186.992l41.4883 -41.5039l-22.4961 -22.4961l-68.9922 68.4805l-11.0078 11.5195l10.9922 11.5195z" />
    <glyph glyph-name="uniF1CA" unicode="&#xf1ca;" 
d="M66.4961 320h0.015625h101.969l5.02344 -7.51953l26.4961 -40.9609l26.4961 40.9609l5.02344 7.51953h101.984l-16 -24.4805l-66.5117 -103.52l66.4795 -103.52l16 -24.4805h-101.968l-5.00781 7.51953l-26.4961 40.9609l-26.4961 -40.9609l-5.02344 -7.51953h-101.984
l16 24.4805l66.5117 103.52l-66.5117 103.52zM125.008 288h0.0166016l56.4473 -87.5195l5.50391 -8.48047l-5.50391 -8.48047l-56.5117 -87.5195h26.5596l35.0088 54.9922l13.4873 21.0078l13.5039 -20.9922l34.9609 -55.0078h26.4951l-56.4795 87.5195l-5.50391 8.48047
l5.50391 8.48047l56.5117 87.5195h-26.5273l-35.0088 -54.9922l-13.4873 -21.0078l-13.5039 20.9922l-34.9609 55.0078h-26.5117zM399.504 144h0.015625h0.960938c26 0 47.5195 -21.4404 47.5039 -47.5039c0 -15.6162 -7.68066 -30.1445 -20.4805 -38.9766l-34 -23.5195
c-0.65625 -0.448242 -0.383789 -1.48828 -1.02344 -2h55.5195v-32h-96v16c0 17.7598 8.7998 34.4482 23.5039 44.4805l34 23.5195c4.20801 2.87988 6.49609 7.4082 6.49609 12.4805c0 8.75195 -6.76758 15.5195 -15.5195 15.5195h-0.960938
c-8.75195 0 -15.5195 -6.76758 -15.5195 -15.5195v-0.480469h-32v0.480469c0 26.0312 21.4404 47.5195 47.5039 47.5195z" />
    <glyph glyph-name="uniF1BA" unicode="&#xf1ba;" 
d="M256 400c114.784 0 208 -93.2158 208 -208s-93.2158 -208 -208 -208s-208 93.2158 -208 208s93.2158 208 208 208zM256 384c-106.128 0 -192 -85.8721 -192 -192s85.8721 -192 192 -192s192 85.8721 192 192s-85.8721 192 -192 192zM256 352
c88.1602 0 160 -71.8398 160 -160s-71.8398 -160 -160 -160s-160 71.8398 -160 160s71.8398 160 160 160zM256 320c-70.8799 0 -128 -57.1201 -128 -128s57.1201 -128 128 -128s128 57.1201 128 128s-57.1201 128 -128 128zM256 288c52.832 0 96 -43.168 96 -96
s-43.168 -96 -96 -96s-96 43.168 -96 96s43.168 96 96 96zM256 256c-35.5195 0 -64 -28.4805 -64 -64s28.4805 -64 64 -64s64 28.4805 64 64s-28.4805 64 -64 64zM256 224c17.6797 0 32 -14.3203 32 -32s-14.3203 -32 -32 -32s-32 14.3203 -32 32s14.3203 32 32 32z" />
    <glyph glyph-name="uniF167" unicode="&#xf167;" 
d="M64 368h32v-32h-32v32zM336 368h32v-298.992l41.5039 41.4883l22.4961 -22.4961l-68.4805 -68.9922l-11.5195 -11.0078l-11.5195 10.9922l-68.4805 69.0078l22.4961 22.4961l41.5039 -41.5039v299.008zM64 304h64v-32h-64v32zM64 240h96v-32h-96v32zM64 176h128v-32h-128
v32zM64 112h160v-32h-160v32zM64 48h192v-32h-192v32z" />
    <glyph glyph-name="uniF1DE" unicode="&#xf1de;" 
d="M80 368h352v-352h-352v352zM112 336v-288h288v288h-288zM256 270.496l11.5195 -10.9766l96 -96l-23.0391 -22.9912l-84.4805 84.4795l-84.4805 -84.5439l-23.0391 23.04l96 96z" />
    <glyph glyph-name="uniF183" unicode="&#xf183;" 
d="M80 368h352v-352h-352v352zM112 336v-288h288v288h-288zM284.48 299.52l22.9912 -23.0391l-84.4795 -84.4805l84.5439 -84.4805l-23.04 -23.0391l-96 96l-10.9922 11.5195l10.9766 11.5195z" />
    <glyph glyph-name="uniF1D8" unicode="&#xf1d8;" 
d="M240 384h32v-32.9922c96.1602 -8.04785 171.904 -86.5273 175.52 -169.008c0.320312 -1.93555 0.480469 -3.95215 0.480469 -6h-32c0 1.28027 -1.4082 4.44824 -8.48047 8.48047c-7.10352 4.06348 -18.5273 7.51953 -31.5195 7.51953s-24.416 -3.45605 -31.5195 -7.51953
c-7.07227 -4.03223 -8.48047 -7.2002 -8.48047 -8.48047h-32c0 0.192383 -1.32812 4.16016 -10 8.48047c-8.67188 4.35156 -22.4805 7.51953 -38 7.51953c-15.5039 0 -29.3281 -3.16797 -38 -7.51953c-8.67188 -4.32031 -10 -8.28809 -10 -8.48047h-32
c0 1.28027 -1.4082 4.44824 -8.48047 8.48047c-7.10352 4.06348 -18.5273 7.51953 -31.5195 7.51953s-24.416 -3.45605 -31.5195 -7.51953c-7.07227 -4.03223 -8.48047 -7.2002 -8.48047 -8.48047h-32c0 2.03223 0.416016 3.96777 0.480469 6
c3.59961 82.4805 79.3271 160.96 175.52 168.992v33.0078zM256 320c-69.5195 0 -128.96 -47.2637 -151.056 -100.464c9.53613 2.94434 19.9355 4.47949 31.04 4.47949c17.9199 0 34.3037 -3.95117 47.5195 -11.5195c3.16797 -1.80762 6.16016 -4.0957 9.00781 -6.49609
c0.0966797 -0.0957031 0.384766 0.0957031 0.480469 0c3.32812 2.51172 6.78418 5.13574 10.5273 6.99219c14.4805 7.24805 32.6406 11.0078 52.4805 11.0078s38.0156 -3.79199 52.4805 -10.9922c3.83984 -1.93555 7.59961 -4.38379 11.0391 -7.00781
c2.81641 2.38379 5.80859 4.68848 8.96094 6.48047c13.1992 7.55176 29.5996 11.5195 47.5195 11.5195c11.0879 0 21.4883 -1.55176 31.0078 -4.48047c-22.0479 53.2168 -81.4717 100.48 -151.008 100.48zM240 176h32v-128c0 -26.3203 -21.6797 -48 -48 -48
s-48 21.6797 -48 48v16h32v-16c0 -9.04004 6.95996 -16 16 -16s16 6.95996 16 16v128z" />
    <glyph glyph-name="uniF120" unicode="&#xf120;" 
d="M256 336h-144v-288h176c44.7998 0 80 35.2002 80 80c0 35.2002 -22.4004 64 -52.7998 75.2002c12.7998 14.3994 20.7998 32 20.7998 52.7998c0 44.7998 -35.2002 80 -80 80zM144 208v96h112c27.2002 0 48 -20.7998 48 -48s-20.7998 -48 -48 -48h-112zM144 80v96h144
c27.2002 0 48 -20.7998 48 -48s-20.7998 -48 -48 -48h-144zM256 368c62.4004 0 112 -49.5996 112 -112c0 -14.4004 -3.2002 -28.7998 -8 -41.5996c24 -20.8008 40 -52.8008 40 -86.4004c0 -62.4004 -49.5996 -112 -112 -112h-208v352h176zM176 272v-32h80
c9.59961 0 16 6.40039 16 16s-6.40039 16 -16 16h-80zM176 144v-32h112c9.59961 0 16 6.40039 16 16s-6.40039 16 -16 16h-112z" />
    <glyph glyph-name="uniF1CD" unicode="&#xf1cd;" 
d="M233.504 384h166.544v-166.464l-4.47949 -5.04004l-176 -176l-11.5205 -10.9922l-11.5195 10.9766l-144 144l-10.9922 11.5195l10.96 11.5195l176 176zM247.008 352h-0.015625l-160 -160l121.008 -121.008l160 160v121.008h-120.992zM416 336h48v-176l-4.48047 -4.95996
l-168.464 -166.544l-11.04 -10.9922l-11.5195 10.9766l-30.9922 31.5195l22.4961 22.4961l20 -20l152 151.008v130.496h-16v32zM320 320c8.83203 0 16 -7.16797 16 -16s-7.16797 -16 -16 -16s-16 7.16797 -16 16s7.16797 16 16 16z" />
    <glyph glyph-name="uniF11B" unicode="&#xf11b;" 
d="M336 384h128v-384h-128v384zM368 352v-320h64v320h-64zM48 288h128v-288h-128v288zM80 256v-224h64v224h-64zM192 192h128v-192h-128v192zM224 160v-128h64v128h-64z" />
    <glyph glyph-name="uniF11C" unicode="&#xf11c;" 
d="M32 336h32v-288h-32v288zM96 336h96v-288h-96v288zM224 336h32v-288h-32v288zM288 336h64v-288h-64v288zM384 336h32v-288h-32v288zM448 336h32v-288h-32v288z" />
    <glyph glyph-name="uniF1B7" unicode="&#xf1b7;" 
d="M384 352c44.7998 0 80 -35.2002 80 -80v-160c0 -44.7998 -35.2002 -80 -80 -80h-256c-44.7998 0 -80 35.2002 -80 80v160c0 44.7998 35.2002 80 80 80h256z" />
    <glyph glyph-name="uniF1DA" unicode="&#xf1da;" 
d="M204.48 363.52h-0.0166016l23.04 -23.0391l-100.512 -100.48h209.008c61.5195 0 112 -50.4805 112 -112v-112h-32v112c0 44.0801 -35.9199 80 -80 80h-209.024l100.561 -100.48l-23.04 -23.0391l-128 128l-10.9922 11.5195l10.9766 11.5195z" />
    <glyph glyph-name="uniF1BE" unicode="&#xf1be;" 
d="M112 368h48c79.3604 0 144 -64.6396 144 -144v-112h-32v112c0 62.0322 -49.9678 112 -112 112h-16v-320h-32v352zM352 368h32v-352h-48c-79.3604 0 -144 64.6396 -144 144v112h32v-112c0 -62.0322 49.9678 -112 112 -112h16v320z" />
    <glyph glyph-name="uniF10B" unicode="&#xf10b;" 
d="M80 352h352c26.3203 0 48 -21.6797 48 -48v-224c0 -26.3203 -21.6797 -48 -48 -48h-352c-26.3203 0 -48 21.6797 -48 48v224c0 26.3203 21.6797 48 48 48zM80 320c-9.04004 0 -16 -6.95996 -16 -16v-224c0 -9.04004 6.95996 -16 16 -16h352c9.04004 0 16 6.95996 16 16
v224c0 9.04004 -6.95996 16 -16 16h-352zM113.008 236h-0.015625h24l31.0078 -83.5195v83.5195h30.9922l21.9678 -59.5195l22.0156 59.5195h28.5283v-88h-17.5195v64l-24.4805 -64h-17.5039l-24 66v-66h-37.5039l-6.49609 20h-37.5039l-6.49609 -20h-20zM295.504 236
h0.015625h72.4805l18 -26.4961l22 26.4961h24l-33.0078 -44l33.0078 -44h-22.0479l-21.9844 28.4805l-22 -28.4805h-70.4639v88zM124 218.496v-0.0322266l-11.0078 -30.96h22.0156zM313.008 216v-15.0078h40v-18h-40v-17.4883h42l20 26.4961l-18 24h-44z" />
    <glyph glyph-name="uniF198" unicode="&#xf198;" 
d="M48 336h208v-32h-208v32zM48 272h320v-32h-320v32zM400 272l80 -80l-80 -80v160zM48 208h320v-32h-320v32zM48 144h320v-32h-320v32zM48 80h208v-32h-208v32z" />
    <glyph glyph-name="uniF17C" unicode="&#xf17c;" 
d="M188 368h160.48l-1.47266 -16.9922l-3.00781 -48l-0.992188 -15.0078h-32.0156l-14 -192h32.0156l-1.00781 -16.9922l-2.99219 -48l-1.00781 -15.0078h-160.48l1.47266 16.9922l3.00781 48l0.992188 15.0078h32l14.0156 192h-32.0156l1.00781 16.9922l2.99219 48z
M218 336l-1.00781 -16h32.0156l-1.00781 -16.9922l-16 -224l-0.992188 -15.0078h-32l-1.00781 -16h96l1.00781 16h-32.0156l1.00781 16.9922l16 224l0.992188 15.0078h32l1.00781 16h-96z" />
    <glyph glyph-name="uniF1E1" unicode="&#xf1e1;" 
d="M240 384h32v-32.4961c44.3203 -3.23145 80 -40.3838 80 -85.5039v-26h-32v26c0 27.8564 -20.96 50.5117 -48 53.4883v-112.48l25.5039 -5.00781c40.6885 -7.3916 70.4961 -42.6562 70.4961 -84c0 -47.1836 -38.832 -86 -86 -86h-10v-32h-32v32h-10
c-47.1836 0 -86 38.7998 -86 86v26h32v-26c0 -29.9043 24.0801 -54 54 -54h10v116l-9.50391 2c-40.6719 7.3916 -70.4961 42.6562 -70.4961 84c0 45.1035 35.6797 82.2725 80 85.5195v32.4805zM240 319.52v-0.015625c-27.04 -2.99219 -48 -25.6475 -48 -53.5195
c0 -26.0801 18.3359 -47.8408 44 -52.4805l4 -0.511719v106.527zM272 174v-110h10c29.8877 0 54 24.0801 54 54c0 26.0801 -18.3203 47.8398 -44 52.4805z" />
    <glyph glyph-name="uniF17E" unicode="&#xf17e;" 
d="M320 400c79.1201 0 144 -64.8799 144 -144s-64.8799 -144 -144 -144c-23.1201 0 -45.1201 6.24023 -64 15.5195v-47.5195h-48v-48h-48v-48h-112v118.496l4.48047 5.02344l126.016 125.473c-1.13574 7.35938 -2.49609 14.6875 -2.49609 23.0078
c0 79.1201 64.8799 144 144 144zM320 368h0.015625c-61.6797 0 -112 -50.3203 -112 -112c0 -7.82422 1.4082 -16.416 3.00879 -26.0156l1.47168 -8.48047l-6 -5.50391l-126.496 -126.992v-73.0078h48v48h48v48h48v48h37.5039l4 -2c15.2158 -8.30371 35.1357 -14 54.4961 -14
c61.6797 0 112 50.3203 112 112s-50.3203 112 -112 112zM352 320c17.6797 0 32 -14.3203 32 -32s-14.3203 -32 -32 -32s-32 14.3203 -32 32s14.3203 32 32 32z" />
    <glyph glyph-name="uniF14F" unicode="&#xf14f;" 
d="M256 400c114.688 0 208 -93.3115 208 -208s-93.3115 -208 -208 -208s-208 93.3115 -208 208s93.3115 208 208 208zM256 368c-97.3916 0 -176 -78.6084 -176 -176s78.6084 -176 176 -176s176 78.6084 176 176s-78.6084 176 -176 176zM240 304h32v-164.48l64 64
l22.5117 -23.0234l-90.9756 -90.9922l-11.5205 -11.5195l-11.5195 11.5195l-90.9922 90.9766l22.4961 23.0391l64 -64v164.48z" />
    <glyph glyph-name="uniF19B" unicode="&#xf19b;" 
d="M240 400c20.1602 0 34.4316 -14.2402 41.5039 -32h118.496v-144h32v-256h-224v32h-128v368h118.496c7.07227 17.7598 21.3438 32 41.5039 32zM240 368c-8.87988 0 -16 -7.12012 -16 -16v-16h-48v-32h128v32h-48v16c0 8.87988 -7.12012 16 -16 16zM112 336v-304h96v192
h160v112h-32v-64h-192v64h-32zM240 192v-192h160v192h-160z" />
    <glyph glyph-name="uniF18D" unicode="&#xf18d;" 
d="M32 352h448v-288h-208v-32h80v-32h-192v32h80v32h-208v288zM64 320v-224h384v224h-384z" />
    <glyph glyph-name="uniF122" unicode="&#xf122;" 
d="M64 368h384v-96h-16v-256h-352v256h-16v96zM96 336v-32h320v32h-320zM112 272v-224h288v224h-288zM205.008 240h-0.015625c0.207031 0.00976562 0.543945 0.0175781 0.751953 0.0175781s0.543945 -0.0078125 0.751953 -0.0175781
c0.207031 0.00976562 0.543945 0.0175781 0.751953 0.0175781s0.544922 -0.0078125 0.751953 -0.0175781h96c8.83203 0 16 -7.16797 16 -16s-7.16797 -16 -16 -16h-96c-0.412109 -0.0380859 -1.08203 -0.0693359 -1.49609 -0.0693359
c-8.87012 0 -16.0693 7.19922 -16.0693 16.0693c0 8.08008 6.52832 15.248 14.5732 16z" />
    <glyph glyph-name="uniF168" unicode="&#xf168;" 
d="M240 352h32l112 -320h-32l-33.5039 96h-124.992l-33.5039 -96h-32zM256 306.496l-50.9922 -146.496h102z" />
    <glyph glyph-name="uniF1B9" unicode="&#xf1b9;" 
d="M312 400c83.7598 0 152 -68.2402 152 -152s-68.2402 -152 -152 -152c-36 0 -68.9277 12.96 -94.9922 34l-141.488 -141.52l-23.0391 23.0391l141.52 141.473c-21.04 26.0957 -34 59.0078 -34 95.0078c0 83.7598 68.2402 152 152 152zM312 368
c-66.4639 0 -120 -53.5361 -120 -120s53.5361 -120 120 -120s120 53.5361 120 120s-53.5361 120 -120 120z" />
    <glyph glyph-name="uniF177" unicode="&#xf177;" 
d="M48 336h416v-32h-416v32zM48 272h304v-32h-304v32zM464 272v-160l-80 80zM48 208h304v-32h-304v32zM48 144h304v-32h-304v32zM48 80h416v-32h-416v32z" />
    <glyph glyph-name="uniF1DD" unicode="&#xf1dd;" 
d="M256 400c114.688 0 208 -93.3115 208 -208s-93.3115 -208 -208 -208s-208 93.3115 -208 208s93.3115 208 208 208zM256 368c-97.3916 0 -176 -78.6084 -176 -176s78.6084 -176 176 -176s176 78.6084 176 176s-78.6084 176 -176 176zM256 306l-0.015625 0.015625
l11.5195 -11.5195l90.9922 -90.9766l-22.4961 -23.0391l-64 64v-164.48h-32v164.48l-64 -64l-22.4961 23.0234l90.9766 90.9766z" />
    <glyph glyph-name="uniF139" unicode="&#xf139;" 
d="M256 384c105.92 0 192 -86.0801 192 -192s-86.0801 -192 -192 -192s-192 86.0801 -192 192s86.0801 192 192 192zM256 368c-97.2803 0 -176 -78.7197 -176 -176s78.7197 -176 176 -176s176 78.7197 176 176s-78.7197 176 -176 176z" />
    <glyph glyph-name="uniF117" unicode="&#xf117;" 
d="M80 400h320v-416h-320v416zM112 368v-352h256v352h-256zM240 292.48l20 -4.96094l64 -16l-8 -31.0391l-44 11.0391v-107.52c0 -26.3203 -21.6797 -48 -48 -48s-48 21.6797 -48 48s21.6797 48 48 48c5.64844 0 10.9443 -1.16797 16 -3.00781v103.488zM224 160
c-9.02441 0 -16 -6.97559 -16 -16s6.97559 -16 16 -16s16 6.97559 16 16s-6.97559 16 -16 16z" />
    <glyph glyph-name="uniF134" unicode="&#xf134;" 
d="M256 400c114.688 0 208 -93.3115 208 -208s-93.3115 -208 -208 -208s-208 93.3115 -208 208s93.3115 208 208 208zM256 368c-97.3916 0 -176 -78.6084 -176 -176s78.6084 -176 176 -176s176 78.6084 176 176s-78.6084 176 -176 176zM227.52 299.52h0.0166016l96 -96
l10.9922 -11.5195l-10.9766 -11.5195l-96 -96l-23.04 23.0391l84.5127 84.4805l-84.5439 84.4805z" />
    <glyph glyph-name="uniF102" unicode="&#xf102;" 
d="M256 400c114.688 0 208 -93.3115 208 -208s-93.3115 -208 -208 -208s-208 93.3115 -208 208s93.3115 208 208 208zM238 366.992v0.015625c-83.6162 -8.44824 -149.456 -75.1201 -157.008 -159.008h15.0078v-32h-15.0078
c7.61621 -84.5439 74.4639 -151.392 159.008 -159.008v15.0078h32v-15.0078c84.5439 7.61621 151.392 74.4639 159.008 159.008h-15.0078v32h15.0078c-7.61621 84.5439 -74.4639 151.392 -159.008 159.008v-15.0078h-32v14.9922
c-0.65625 -0.0478516 -1.36035 0.0800781 -2 0zM353.52 289.504l-59.0391 -136l-136 -59.0078l59.0391 136zM256 216c-12.7998 0 -24 -11.2002 -24 -24s11.2002 -24 24 -24s24 11.2002 24 24s-11.2002 24 -24 24z" />
    <glyph glyph-name="uniF15E" unicode="&#xf15e;" 
d="M80 384h352v-37.5039l-3.51953 -4.48047l-124.48 -155.52v-114.496l-6.49609 -4.99219l-64 -48l-25.5039 -19.0078v186.496l-124.48 155.52l-3.51953 4.48047v37.5039zM116.48 352l115.039 -144h48.9609l115.039 144h-279.039zM240 176v-112l32 24v88h-32z" />
    <glyph glyph-name="uniF1B0" unicode="&#xf1b0;" 
d="M299.52 339.52l136 -136l10.9922 -11.5195l-10.9756 -11.5195l-136 -136l-23.04 23.0391l108.512 108.48h-321.008v32h321.008l-108.527 108.48z" />
    <glyph glyph-name="uniF104" unicode="&#xf104;" 
d="M256 400c26.3203 0 48 -21.6797 48 -48v-117.504l134.496 -60.0156l9.50391 -4v-76.4805l-18 2l-126 14v-29.4883l40.9922 -27.5195l7.00781 -4.51172v-68l-18.9922 4l-77.0078 15.5195l-76.9922 -15.5039l-19.0078 -4v68.0479l6.99219 4.48047l41.0078 27.4717v29.5039
l-126 -14l-18 -1.98438v76.4805l9.50391 4l134.496 60v117.504c0 26.3203 21.6797 48 48 48zM256 368c-9.04004 0 -16 -6.95996 -16 -16v-138.48l-9.50391 -4l-134.496 -60v-19.5195l126 14l18 2v-82.9756l-6.99219 -4.5127l-41.0078 -27.4717v-11.5205l60.9922 12
l3.00781 0.960938l2.99219 -0.992188l61.0078 -12v11.5195l-40.9922 27.4883l-7.00781 4.51172v82.9922l18 -2l126 -14.0156v19.5195l-134.496 60l-9.50391 4v138.496c0 9.04004 -6.95996 16 -16 16z" />
    <glyph glyph-name="uniF180" unicode="&#xf180;" 
d="M256 384c105.856 0 192 -86.1436 192 -192s-86.1436 -192 -192 -192s-192 86.1436 -192 192s86.1436 192 192 192zM256 352c-88.5596 0 -160 -71.4404 -160 -160s71.4404 -160 160 -160v320z" />
    <glyph glyph-name="uniF1A3" unicode="&#xf1a3;" 
d="M256 400c114.688 0 208 -93.3115 208 -208s-93.3115 -208 -208 -208s-208 93.3115 -208 208s93.3115 208 208 208zM256 368c-97.3916 0 -176 -78.6084 -176 -176s78.6084 -176 176 -176s176 78.6084 176 176s-78.6084 176 -176 176zM240 288h32v-80h80v-32h-80v-80h-32
v80h-80v32h80v80z" />
    <glyph glyph-name="uniF103" unicode="&#xf103;" 
d="M480 373.504v-362.992l-20.4805 5.98438l-208.527 63.5195l-0.480469 -1.50391c-10.4473 -35.5195 -48.0479 -54.3193 -82.0156 -44c-0.12793 0.0478516 -0.320312 -0.0478516 -0.480469 0c-35.248 10.624 -54.2715 48.1924 -44 81.9844v0.511719l0.480469 1.48828
l-31.4883 9.50391h-61.0078v128h60.9922l366.527 111.504zM448 330.496v0.015625l-347.504 -106.031l-2 -0.480469h-34.4961v-64h34.5117l1.96875 -0.480469l347.52 -106.016v276.992zM154.992 109.008l-0.480469 -1.51953v-0.480469
c-5.34375 -17.1357 4.28809 -36.5117 23.0078 -42c17.1201 -5.35938 36.9922 3.79199 42.4961 22.5117v0.480469l0.480469 1.48828z" />
    <glyph glyph-name="uniF19D" unicode="&#xf19d;" 
d="M80 400h320v-416h-320v416zM112 368v-352h256v352h-256zM230.496 282.496l0.0322266 -0.015625h0.511719c5.28027 -0.112305 10.5117 -2.16016 14.5117 -5.48828c4.09668 -3.45605 6.81641 -7.96777 8.48047 -12.5283
c3.31152 -9.07227 3.75977 -18.9922 2.99219 -30.5117c-0.608398 -9.50391 -5.2002 -21.6006 -7.48828 -32.4805c2.97559 -6.73535 3.96777 -12.3838 7.48828 -19.0078c6.55957 -12.2559 13.7754 -19.4561 21.0078 -28.9922
c8.27148 0.416016 18.0322 2.91211 24.9922 2.0166c9.07129 -1.2002 17.4395 -2.95996 24 -10c3.2793 -3.52051 5.90332 -8.86426 6 -13.9844c0.111328 -5.15234 -1.56836 -9.72754 -4 -14v-0.511719h-0.512695c-5.50391 -9.37598 -15.4873 -15.6162 -25.5039 -14.9766
c-10 0.592773 -18.3682 5.87207 -26 12.4805c-3.75977 3.26367 -6.84766 9.85547 -10.4795 13.9844c-8.48047 -0.960938 -14.4961 0.015625 -23.5205 -2c-8.5918 -1.9209 -14.416 -5.3125 -22.4795 -8c-5.36035 -10.7529 -9.60059 -24.1289 -15.5205 -32
c-6.38379 -8.49609 -13.0723 -15.7441 -22.4795 -18.9766c-4.7207 -1.64746 -10.3359 -1.56836 -15.5205 0.480469c-5.16797 2.04785 -9.04004 5.56738 -12 10c-5.96777 8.47949 -6.44824 20.208 -1.96777 28.4795c4.44824 8.32031 11.9355 14.208 20.4795 19.5205
c7.93652 4.92773 19.9365 7.19922 30.0166 11.0078c4.39941 9.55176 9.2002 15.7275 12.96 26.5117c4.41602 12.5283 5.15234 23.2803 8 35.4883c-5.59961 13.3916 -12.5918 27.3916 -14.9922 38.9922c-2.06348 9.91992 -2.7041 18.9121 -0.511719 27.5195
c1.08789 4.28809 2.94336 8.56055 7.00781 12c3.93555 3.32812 9.61621 5.07227 14.4961 4.99219zM240.992 164v-0.015625c-0.959961 -2.94434 -0.959961 -5.56836 -1.98438 -8.48047c-0.895508 -2.51172 -2.0957 -4.03223 -3.00781 -6.51172
c0.767578 0.208008 1.21582 0.847656 2.01562 1.00781c4.54395 1.02441 7.96875 0.192383 12.4805 0.992188c-3.07227 4.73535 -6.62402 7.95215 -9.50391 13.0078zM300 131.52v-0.03125c-1.02441 0.160156 -3.36035 -0.576172 -4.48047 -0.480469
c3.84082 -2.73535 7.9043 -4.94336 8.96094 -5.00781c1.2793 -0.0800781 1.55176 -0.288086 3.51953 2.99219c0.192383 0.351562 -0.112305 0.255859 0 0.511719c-0.719727 0.303711 -2.6084 1.2959 -8 2.01562zM188 106.496
c-0.496094 -0.288086 -1.50391 -0.704102 -1.98438 -0.992188c-6.55957 -4.06348 -10.3516 -8.35156 -11.5195 -10.4961c-1.15234 -2.16016 -1.64844 -1.16797 0 -3.51953h0.511719c0.320312 -0.480469 -0.208008 -0.272461 0 -0.480469
c1.12012 0.463867 5.61621 3.50391 10.4961 10c0.864258 1.13574 1.61621 4.20801 2.49609 5.48828z" />
    <glyph glyph-name="uniF14C" unicode="&#xf14c;" 
d="M145.504 371.52l168 -168l11.4883 -11.5195l-11.4883 -11.5195l-168 -168l-22.4961 23.0391l156.48 156.48l-156.48 156.48zM257.504 371.52l168 -168l11.4883 -11.5195l-11.4883 -11.5195l-168 -168l-22.4961 23.0391l156.512 156.48l-156.527 156.48z" />
    <glyph glyph-name="uniF195" unicode="&#xf195;" 
d="M184 352h144l4.99219 -6.49609l19.0078 -25.5039h112v-288h-416v288h32v16h64v-16h16l18.9922 25.5039zM200 320l-18.9922 -25.5039l-5.00781 -6.49609h-96v-64h92.9922c16.6875 28.5439 47.7119 48 83.0078 48c35.3115 0 66.3203 -19.4561 82.9922 -48h93.0078v64h-96
l-4.99219 6.49609l-19.0078 25.5039h-112zM368 272h32v-32h-32v32zM256 240c-35.5195 0 -64 -28.4805 -64 -64s28.4805 -64 64 -64s64 28.4805 64 64s-28.4805 64 -64 64zM80 192v-128h352v128h-81.5039c0.864258 -5.15234 1.50391 -10.6084 1.50391 -16
c0 -52.832 -43.168 -96 -96 -96s-96 43.168 -96 96c0 5.3916 0.639648 10.8477 1.50391 16h-81.5039z" />
    <glyph glyph-name="uniF1C8" unicode="&#xf1c8;" 
d="M80 352h352c26.3203 0 48 -21.6797 48 -48v-224c0 -26.3203 -21.6797 -48 -48 -48h-352c-26.3203 0 -48 21.6797 -48 48v224c0 26.3203 21.6797 48 48 48zM80 320c-9.04004 0 -16 -6.95996 -16 -16v-224c0 -9.04004 6.95996 -16 16 -16h352c9.04004 0 16 6.95996 16 16
v224c0 9.04004 -6.95996 16 -16 16h-352zM264 264.992v-0.0478516c7.47168 0 13.5039 -5.9043 13.5039 -13.4727c0 -7.4873 -6.01562 -13.5039 -13.5039 -13.5039c-7.58398 0 -13.5039 6.0166 -13.5039 13.5361c0 7.56836 5.91992 13.4883 13.5039 13.4883zM176.992 252.992
v0.0634766l0.0322266 -22.9912h16.4795l-3.00781 -19.5205h-13.4883v-33.5039c0 -5.91992 2.40039 -8.52832 7.47266 -8.52832c2.39941 0 5.96777 0.591797 7.51953 1.00781v-20c-2.78418 -0.735352 -6.84766 -1.9834 -13.5039 -1.9834
c-8.62402 0 -14.7363 1.56738 -18.9766 5.00781c-5.11914 4.12793 -7.51953 10.7197 -7.51953 20.4805v37.5039h-11.0078l3.00781 17.9678l8 1.48828l3.00781 19.5195zM110.512 231.52l-0.0634766 -0.0634766c12.3994 0 21.1357 -3.4082 25.5195 -5.48828l-2.99219 -19.5195
c-5.51953 2.7041 -13.7119 5.9834 -21.4717 5.9834c-4.27148 0 -6.51172 -2.08008 -6.51172 -4.95996c0 -3.43945 4.41602 -5.21582 12 -8c14.2559 -5.08789 23.0078 -11.0557 23.0078 -25.5195c0 -8.7041 -3.16797 -15.9043 -8.99219 -20.4805
c-5.2002 -4.16016 -12.752 -5.9834 -22 -5.9834c-11.6475 0 -22.9756 3.56738 -29.0078 7.00781l3.00781 19.5195c7.07227 -4.15918 17.9521 -7.51953 24.5117 -7.51953c5.28027 0 8 2.08008 8 5.50391c0 3.55176 -2.97559 5.79199 -12 8.99219
c-14.0156 5.10352 -22.4951 10.8799 -22.4951 25.0078c0 7.79199 2.5918 14.5439 8 18.9922c5.19922 4.25586 12.752 6.52734 21.4873 6.52734zM331.52 231.52l-0.0478516 -0.0791016c8.09668 0 14.416 -3.08887 18.9766 -9.00879
c5.2002 -6.65527 7.51953 -17.2793 7.51953 -30.9756c0 -15.4717 -3.53613 -26.9121 -10.4639 -34.5117c-7.28027 -7.88867 -16.5596 -9.48828 -22.9922 -9.48828c-3.64746 0 -7.56738 0.255859 -11.5195 1.50391v-25.4561l-26 -4.51172v110.992h23.0078l1.00781 -8.48047
c6.1123 6.54395 12.9922 10.0156 20.5117 10.0156zM399.008 231.52l0.0166016 -0.015625c10.7031 0 18.8799 -3.74414 24.5117 -11.04c5.50391 -7.16797 8.47949 -17.6162 8.47949 -30.4961c0 -1.87207 -0.351562 -7.74414 -0.479492 -9.02344h-42.5117
c0.543945 -5.2959 1.79199 -8.7041 4.51172 -10.9766c2.47949 -2.19141 6 -3.51953 10.96 -3.51953c8.32031 0 15.6641 2.08008 21.9844 5.51953l3.03906 -18c-6.44727 -4.27148 -16.5117 -6.46387 -27.5195 -6.46387c-11.9355 0 -21.5518 2.76855 -28 9.00781
c-7.15234 6.94434 -10.5117 17.9199 -10.5117 32.4805c0 25.9834 13.5996 42.5273 35.5195 42.5273zM240 230.976l0.0322266 -0.015625c1.56738 0 3.2002 -0.0634766 5.00781 -0.479492v-24c-1.82422 0.303711 -3.16797 0.511719 -4.54395 0.511719
c-6.24023 0 -10.7998 -1.55176 -14 -5.50391v-52.5283h-26.0156v81.0078h22.5273l1.47266 -9.9834c2.30371 6.83203 8.23926 10.9912 15.5195 10.9912zM251.008 229.984l-0.015625 0.015625h26v-81.0244h-25.9844v81.0088zM398.496 213.984v0.015625
c-5.91992 0 -8.76855 -5.45605 -9.50391 -17.0244h19.0078c-0.416016 11.4404 -3.67969 17.0088 -9.50391 17.0088zM322.496 211.488l0.0478516 -0.0322266c-1.44043 0 -5.13574 -0.431641 -9.50391 -5.00781v-38.4805c2.08008 -1.02344 4.43164 -1.50391 6.99219 -1.50391
c3.74414 0 6.91211 2.04785 8.99219 6c2.35156 4.16016 3.51953 10.624 3.47168 18.4961c0 13.8076 -3.44043 20.5283 -10 20.5283z" />
    <glyph glyph-name="uniF119" unicode="&#xf119;" 
d="M80 352h352c26.3203 0 48 -21.6797 48 -48v-224c0 -26.3203 -21.6797 -48 -48 -48h-352c-26.3203 0 -48 21.6797 -48 48v224c0 26.3203 21.6797 48 48 48zM80 320c-9.04004 0 -16 -6.95996 -16 -16v-224c0 -9.04004 6.95996 -16 16 -16h352c9.04004 0 16 6.95996 16 16
v160h-368v32h368v32c0 9.04004 -6.95996 16 -16 16h-352z" />
    <glyph glyph-name="uniF109" unicode="&#xf109;" 
d="M131.008 368h-0.0478516h26.0645l3.45605 -10.4961l31.0391 -85.5039h0.480469v-0.992188l14.9922 -41.5039l1.00781 -2.49609v-19.0078h-32v13.5039l-6.49609 18.4961h-51.0078l-6.49609 -18.4961v-13.5039h-32v19.0078l0.992188 2.49609l15.0078 41.4883v1.00781
h0.511719l30.9766 85.5039zM352 368h32v-298.992l41.5039 41.4883l22.4961 -22.4961l-68.4805 -68.9922l-11.5195 -11.0078l-11.5195 10.9922l-68.4805 69.0078l22.4961 22.4961l41.5039 -41.5039v299.008zM144 309.504l-13.5039 -37.5039h27.0078zM80 176h127.984v-38.4961
l-4.48047 -5.02344l-84.5117 -84.4805h89.0078v-32h-128v38.4961l4.48047 5.02344l84.5273 84.4805h-89.0078v32z" />
    <glyph glyph-name="uniF1CE" unicode="&#xf1ce;" 
d="M80 368h352v-96h-352v96zM176 336v-32h224v32h-224zM80 240h352v-96h-352v96zM336 208v-32h64v32h-64zM80 112h352v-96h-352v96zM256 80v-32h144v32h-144z" />
    <glyph glyph-name="uniF14D" unicode="&#xf14d;" 
d="M256 372.992l11.5195 -11.4883l184 -184l-23.0391 -22.4961l-172.48 172.512l-172.48 -172.527l-23.0391 22.5117l184 184zM256 260.992v0.0322266l11.5195 -11.5205l184 -184l-23.0391 -22.5117l-172.48 172.527l-172.48 -172.527l-23.0391 22.5117l184 184z" />
    <glyph glyph-name="uniF19C" unicode="&#xf19c;" 
d="M142.496 368h0.0322266h146.464c23.5518 0 48.7676 -8.52832 67.0078 -27.5039c9.83984 -10.208 17.0879 -23.7119 20.4805 -39.4883c17.7598 -4.39941 34.8799 -13.6475 47.5195 -29.0078c15.584 -18.9443 23.04 -46.9443 16 -80
c-13.4404 -62.8965 -66.2881 -102 -126.48 -102h-43.0391l-16.4805 -76.9922l-2.48047 -13.0078h-111.52l4.49609 19.5195l9.50391 44.4805h-78l4.46387 19.5195l59.04 272zM168.496 336h-0.015625l-52.4805 -240h45.5195l16.4805 77.5039l2.48047 12.5117h69.0713
c47.0566 0 84.416 27.5205 94.9766 76.96c5.95215 27.7764 -0.496094 44.0801 -11.4883 55.5205c-11.0078 11.4238 -28.3203 17.5039 -44 17.5039h-120.544zM209.04 312.48v0.015625h50.9756c14.1924 0 27.5527 -6.6084 35.5205 -17.4883
c7.75977 -10.6396 10 -24.9922 6.47949 -39.0078c-0.0634766 -0.351562 0.112305 -0.671875 0 -0.992188h-0.479492c-6.99219 -27.8242 -31.5684 -48.5273 -60 -48.5273h-56.5117l4.52734 19.5195l16.4805 74zM234.528 280.48l0.015625 0.015625l-9.47168 -41.9844h16.4795
c11.2158 0 26.4805 11.5205 29.4883 24.4805v0.527344c1.71191 6.27246 0.368164 10.4326 -1.48828 12.9609c-1.83984 2.55957 -4.49609 4 -9.51953 4h-25.5039zM377.536 266.496h-0.0322266c-0.431641 -3.48828 -0.736328 -6.87988 -1.50391 -10.4961
c-13.4404 -62.8965 -66.2881 -102 -126.48 -102h-43.0391l-16.4805 -76.9922l-2.51172 -13.0078h-0.480469l-7.00781 -32h45.5195l16.4805 77.4883l2.48047 12.4795h69.0391c47.0566 0 84.416 27.5205 94.9766 76.9922c5.48828 25.584 0.320312 41.1836 -8.95996 52.5439
c-5.64844 6.83203 -13.5205 11.5361 -22 14.9922z" />
    <glyph glyph-name="uniF13C" unicode="&#xf13c;" 
d="M394.496 399.52l0.015625 0.0322266c17.7441 0 35.5527 -6.55957 49.0244 -20c26.8799 -26.8955 26.8799 -71.1201 0 -98l-45.0078 -44.5117l16 -16l-22.4961 -22.4961l-16 16l-152 -152c-17.0244 -17.0244 -29.5205 -26.9443 -40.4805 -32.9922
c-10.9922 -6.04785 -20.4482 -7.90332 -27.04 -9.02344c-6.55957 -1.10449 -10.1602 -1.82422 -16.96 -5.50391c-6.83203 -3.68066 -16.6396 -11.1523 -32 -26.5127l-11.5195 -10.9922l-11.5205 10.9766l-32 32l-10.9922 11.5195l10.9766 11.5205
c15.792 15.7598 23.6162 25.9199 27.5195 32.96c3.9043 7.08789 4.41602 10.5762 5.50391 17.0078c1.08887 6.43164 3.13672 16.1602 8.99219 26.9766c5.87207 10.8477 15.3604 22.8799 32 39.5195l152 152l-16 16l22.4805 22.4961l16 -16l44.5117 45.0234
c13.4404 13.4404 31.2637 20 48.9922 20zM394.496 367.52c-9.45605 0 -19.1357 -3.67969 -26.4961 -11.0391l-44.4639 -44.4805l52.4795 -52.4805l44.4805 44.4805c14.7197 14.7197 14.7197 37.792 0 52.4805c-7.34375 7.35938 -16.5283 11.0391 -26 11.0391z
M301.008 289.504h0.0166016l-152 -152c-15.376 -15.3604 -22.832 -25.6797 -26.5127 -32.5117c-3.67969 -6.81641 -4.36816 -9.91992 -5.4873 -16.4805c-1.12012 -6.55957 -2.95996 -16.5273 -9.00879 -27.5195c-4.14355 -7.48828 -13.7432 -17.5684 -22.4961 -27.4883
l12 -12c9.60059 8.44824 19.6162 18.0156 26.9766 22.0156c10.8154 5.84082 20.0635 7.39258 26.4961 8.48047c6.44824 1.08789 9.93555 1.59961 17.0078 5.50391c7.08789 3.8877 17.7275 11.7119 33.4883 27.4883l152 152.032z" />
    <glyph glyph-name="uniF115" unicode="&#xf115;" 
d="M256 382.496v0.015625l11.5195 -11.4873l96 -96l-23.0391 -22.5283l-68.4805 68.5117v-321.008h-32v321.024l-68.4805 -68.5283l-23.0391 22.5117l96 96z" />
    <glyph glyph-name="uniF11F" unicode="&#xf11f;" 
d="M192 400h32v-48h32v48h32v-48h8c48.416 0 88 -39.584 88 -88c0 -26.3359 -11.5195 -50.3359 -30 -66.4961c27.4404 -14.9443 46 -44.2236 46 -77.5039c0 -48.416 -39.584 -88 -88 -88h-24v-48h-32v48h-32v-48h-32v48h-64v320h64v48zM160 320v-112h136
c31.1035 0 56 24.8965 56 56s-24.8965 56 -56 56h-136zM160 176v-112h152c31.1035 0 56 24.8965 56 56s-24.8965 56 -56 56h-152z" />
    <glyph glyph-name="uniF159" unicode="&#xf159;" 
d="M334 406.992h-0.015625l11.5195 -11.4727l28.9922 -29.0391h56v-56l29.0234 -28.9609l11.4883 -11.5195l-12 -10.9922l-28.5117 -27.0078v-57.4883h-56l-28.96 -27.4873l-11.5205 -11.0088l-10.9912 10.9922l-24 24l-187.009 -186.479l-11.0078 -11.5205
l-11.4883 11.4883l-41.0234 41.0078l-11.4883 10.9766l11.4727 11.5195l186.527 186.992l-24 24l-11.0078 10.9922l10.9756 11.5195l27.5205 29.0078v56h57.5039l26.9922 28.4805zM334.48 361.008l0.015625 -0.015625l-20.4805 -21.4883l-4.47949 -5.00781h-39.04v-36.96
l-4.48047 -4.51172l-21.5195 -22.4961l13.5039 -13.4883l61.0078 61.4717l11.4883 11.04l11.0078 -11.04l40.9922 -40.96l11.5195 -11.5195l-11.5195 -10.9922l-61.4883 -61.0078l13.4883 -13.5205l22.4961 21.5205l4.51172 4.47949h36.9922v39.0078l5.02344 4.5127
l21.5049 20.4795l-22 21.9844l-4.5127 5.00781v36.9922h-36.9922l-5.02344 4.51172zM330.48 284.496l0.03125 0.015625l-248 -248l18.4961 -18.0156l247.488 247.52zM304 112h32v-16h16v-32h-16v-16h-32v16h-16v32h16v16zM400 80h32v-32h32v-32h-32v-32h-32v32h-32v32h32v32
z" />
    <glyph glyph-name="uniF125" unicode="&#xf125;" 
d="M397.008 383.52l-0.015625 0.0166016c13.3916 0 26.3682 -5.39258 36.5117 -15.5205c20.2559 -20.2715 20.2559 -53.2314 0 -73.5039v-0.479492l-203.008 -200l-8 -7.52051c-1.96777 -12.6875 -7.36035 -25.1357 -17.0078 -35.0078l-0.480469 -0.479492
c-21.0879 -21.0889 -62.3682 -51.0088 -125.008 -51.0088h-29.5039l16 24.9922c15.4883 23.584 21.9199 44.8643 27.0078 64c5.07227 19.168 7.66406 36.96 20.9922 51.4883c9.04004 9.83984 20.5117 15.7598 32.5117 18l9.98438 9.50391l203.008 200
c10.1279 10.1279 23.6162 15.5195 37.0078 15.5195zM397.008 352c-5.02344 0 -10.2402 -2.24023 -14.5117 -6.49609l-144.992 -142.496l28.9922 -29.0078l144.512 142.992c8.52832 8.54395 8.52832 19.9678 0 28.5117c-4.27148 4.25586 -8.99219 6.49609 -14 6.49609z
M214.48 180.48l-0.0166016 0.015625l-24 -23.4883l29.0244 -29.0078l24 23.5195zM159.52 127.52h-0.015625c-8.0957 0.224609 -15.9521 -2.43164 -21.5039 -8.51172c-4.27246 -4.65625 -8.17578 -18.4316 -13.5195 -38.5117
c-3.44043 -13.0078 -8.80078 -28.6885 -16.4805 -45.4883c35.9844 6.73633 60.5918 24.5918 74.5117 38.5117c13.2158 13.2168 12.9287 33.0889 0.480469 44.4805c-6.67188 6.12793 -15.4082 9.26367 -23.4727 9.51953z" />
    <glyph glyph-name="uniF15B" unicode="&#xf15b;" 
d="M315.52 379.52v-0.0478516l52.4805 -52.4795l52.4805 52.5273l22.9912 -23.0391l-52.4795 -52.4805l52.5273 -52.4639l-23.0391 -23.04l-52.4805 52.5283l-47.5195 -47.5205c19.6475 -24.624 31.5195 -55.6797 31.5195 -89.5039c0 -79.3604 -64.6396 -144 -144 -144
s-144 64.6396 -144 144s64.6396 144 144 144c33.8242 0 64.8643 -11.8398 89.5195 -31.5195l47.4883 47.5195l-52.5273 52.4805zM208 256c-62.0479 0 -112 -49.9521 -112 -112s49.9521 -112 112 -112s112 49.9521 112 112s-49.9521 112 -112 112z" />
    <glyph glyph-name="uniF190" unicode="&#xf190;" 
d="M48 368h320v-112h96v-176c0 -35.3604 -28.6396 -64 -64 -64h-288c-35.3604 0 -64 28.6396 -64 64v288zM80 336v-256c0 -19.04 12.96 -32 32 -32h233.008c-5.48828 9.44043 -9.00781 20.3203 -9.00781 32v256h-256zM112 304h192v-80h-192v80zM144 272v-16h128v16h-128z
M368 224v-144c0 -19.04 12.96 -32 32 -32s32 12.96 32 32v144h-64zM112 208h80v-32h-80v32zM224 208h80v-32h-80v32zM112 160h80v-32h-80v32zM224 160h80v-32h-80v32zM112 112h80v-32h-80v32zM224 112h80v-32h-80v32z" />
    <glyph glyph-name="uniF129" unicode="&#xf129;" 
d="M256 400c114.688 0 208 -93.3115 208 -208s-93.3115 -208 -208 -208s-208 93.3115 -208 208s93.3115 208 208 208zM256 368c-97.3916 0 -176 -78.6084 -176 -176s78.6084 -176 176 -176s176 78.6084 176 176s-78.6084 176 -176 176zM195.52 275.52v-0.03125
l60.4805 -60.5127l60.4805 60.5439l22.9912 -23.0391l-60.4795 -60.4805l60.5273 -60.4805l-23.0391 -22.9912l-60.4805 60.4795l-60.4482 -60.5273l-23.04 23.0391l60.5127 60.4805l-60.5439 60.4805z" />
    <glyph glyph-name="uniF138" unicode="&#xf138;" 
d="M288 381.12c90.6562 -15.3125 160 -94.1758 160 -189.12c0 -105.872 -86.1279 -192 -192 -192s-192 86.1279 -192 192c0 94.96 69.3438 173.824 160 189.088v-32.3203c-72.96 -14.8477 -128 -79.4873 -128 -156.768c0 -88.2236 71.7764 -160 160 -160
s160 71.7764 160 160c0 77.248 -55.04 141.888 -128 156.768v32.3525z" />
    <glyph glyph-name="uniF12C" unicode="&#xf12c;" 
d="M256 400c56 0 107.2 -22.208 144 -59.0078l-22.4961 -22.4961c-30.4004 30.4004 -73.5039 49.5039 -121.504 49.5039c-97.5996 0 -176 -78.4004 -176 -176s78.416 -176 176.016 -176c97.6006 0 176 78.4004 176 176c0 14.4004 -1.80762 27.2002 -5.00781 40
l25.9844 25.5039c8 -20.7998 11.0078 -43.1035 11.0078 -65.5039c0 -115.2 -92.7998 -208 -208 -208s-208 92.7998 -208 208s92.7998 208 208 208zM436.48 331.52v0.0166016l23.0391 -23.04l-192 -192l-11.5195 -10.9922l-11.5195 10.9766l-80 80l23.0391 22.9912
l68.4805 -68.4795z" />
    <glyph glyph-name="uniF121" unicode="&#xf121;" 
d="M112 368h288v-368l-25.5039 18.9922l-118.496 89.0078l-118.496 -88.9922l-25.5039 -19.0078v368zM144 336v-272l102.496 76.9922l9.50391 7.00781l9.50391 -6.99219l102.496 -77.0078v272h-224z" />
    <glyph glyph-name="uniF12E" unicode="&#xf12e;" 
d="M452.48 347.52v0.0166016l23.0391 -23.04l-288 -288l-11.5195 -10.9922l-11.5195 10.9766l-128 128l23.0391 22.9912l116.48 -116.479z" />
    <glyph glyph-name="uniF1C3" unicode="&#xf1c3;" 
d="M320 374.496v-364.977l-27.5039 26.9609l-144 144l-10.9922 11.5195l10.9766 11.5195l144 144zM288 297.008l-105.008 -105.008l105.008 -105.008v210.016z" />
    <glyph glyph-name="uniF1C2" unicode="&#xf1c2;" 
d="M57.5039 256h396.977l-26.9443 -27.5039l-160 -160l-11.5205 -10.9922l-11.5195 10.9766l-160 160zM135.008 224h-0.015625l121.008 -121.008l120.992 121.008h-241.984z" />
    <glyph glyph-name="uniF108" unicode="&#xf108;" 
d="M48 336h416v-32h-416v32zM176 272h288v-32h-288v32zM48 208h416v-32h-416v32zM176 144h288v-32h-288v32zM48 80h416v-32h-416v32z" />
    <glyph glyph-name="uniF128" unicode="&#xf128;" 
d="M184 352h144l4.99219 -6.49609l19.0078 -25.5039h112v-288h-416v288h112l18.9922 25.5039zM200 320l-18.9922 -25.5039l-5.00781 -6.49609h-96v-224h352v224h-96l-4.99219 6.49609l-19.0078 25.5039h-112zM128 272c8.83203 0 16 -7.16797 16 -16s-7.16797 -16 -16 -16
s-16 7.16797 -16 16s7.16797 16 16 16zM256 272c52.832 0 96 -43.168 96 -96s-43.168 -96 -96 -96s-96 43.168 -96 96s43.168 96 96 96zM256 240c-35.5195 0 -64 -28.4805 -64 -64s28.4805 -64 64 -64s64 28.4805 64 64s-28.4805 64 -64 64z" />
    <glyph glyph-name="uniF18F" unicode="&#xf18f;" 
d="M432 387.52v-275.52c0 -35.1523 -28.8477 -64 -64 -64s-64 28.8477 -64 64s28.8477 64 64 64c11.7119 0 22.5117 -3.42383 32 -8.99219v117.984l-224 -41.9844v-179.008c0 -35.1523 -28.8477 -64 -64 -64s-64 28.8477 -64 64s28.8477 64 64 64
c11.7119 0 22.5117 -3.3916 32 -9.02441v214.513l12.9922 2.03125l256 48zM400 348.96l-224 -41.9844v-32l224 41.9844v32zM368 144c-17.8564 0 -32 -14.1436 -32 -32s14.1436 -32 32 -32s32 14.1436 32 32s-14.1436 32 -32 32zM112 96c-17.8564 0 -32 -14.1436 -32 -32
s14.1436 -32 32 -32s32 14.1436 32 32s-14.1436 32 -32 32z" />
    <glyph glyph-name="uniF17B" unicode="&#xf17b;" 
d="M176 384h160c26.3203 0 48 -21.6797 48 -48v-288c0 -26.3203 -21.6797 -48 -48 -48h-160c-26.3203 0 -48 21.6797 -48 48v288c0 26.3203 21.6797 48 48 48zM176 352c-8.87988 0 -16 -7.12012 -16 -16v-288c0 -8.87988 7.12012 -16 16 -16h160c8.87988 0 16 7.12012 16 16
v288c0 8.87988 -7.12012 16 -16 16h-160zM256 80c8.83203 0 16 -7.16797 16 -16s-7.16797 -16 -16 -16s-16 7.16797 -16 16s7.16797 16 16 16z" />
    <glyph glyph-name="uniF155" unicode="&#xf155;" 
d="M302.496 382.496c12.8955 -0.015625 25.3115 -4.7998 35.0078 -14.4961l96 -96c19.3926 -19.3916 18.7686 -51.7275 -1.50391 -72l-185.504 -185.504l-0.480469 -0.511719v-0.480469c-20.5752 -18.2715 -52.1113 -18.4004 -71.5195 0.992188l-96 96h-0.511719
l-0.480469 0.511719c-18.2715 20.5439 -18.4004 52.0957 0.992188 71.4883l187.008 185.52l0.511719 0.480469v0.511719c10.2402 9.13574 23.6006 13.5205 36.4805 13.4883zM302.016 350.016h-0.03125c-4.88086 -0.03125 -9.95215 -1.15137 -14 -4.51172
l-0.480469 -0.479492l-81.0078 -80.5283l122.496 -122.48l80.5117 80.4805c8.54395 8.54395 7.69629 20.7998 1.50391 27.0078l-96.0322 96c-3.07129 3.10449 -7.87207 4.51172 -12.96 4.51172zM183.504 241.504h0.015625l-82.5117 -81.5039
c-5.9834 -5.98438 -6.55957 -18.7197 0 -26.9922c0.240234 -0.303711 0.255859 -0.719727 0.511719 -1.00781l95.4727 -95.0078c6.08008 -6.08008 18.7354 -6.84863 27.0078 0l0.480469 0.511719l81.5039 81.5039z" />
    <glyph glyph-name="uniF12D" unicode="&#xf12d;" 
d="M64 384h381.008l-32 -32h-317.008v-320h320v189.008l32 32v-253.008h-384v384zM436.48 331.52v0.0166016l23.0391 -23.04l-192 -192l-11.5195 -10.9922l-11.5195 10.9766l-80 80l23.0391 22.9912l68.4805 -68.4795z" />
    <glyph glyph-name="uniF1E2" unicode="&#xf1e2;" 
d="M286 384h9.51953l4.48047 -8l14.9922 -26.4961c24.7354 -2.49609 58.0479 -13.2803 87.0078 -52c32.8799 -44 58 -119.504 58 -249.504v-16h-154.496c-15.8242 -9.87207 -33.6641 -16 -53.5039 -16c-19.8564 0 -37.6641 6 -53.5039 16h-138.496v16
c0 145.92 26.7676 229.984 70.4805 278.496c43.7754 48.5117 102.655 57.5039 155.52 57.5039zM276.992 350.992h-0.0322266c-45.9678 -0.944336 -89.0879 -8.95996 -122.496 -45.9844c-34.1436 -37.8721 -59.3438 -110.399 -61.5039 -241.008h70.5439
c-1.9043 2.43164 -3.74414 4.95996 -5.50391 7.51953c-21.7119 31.04 -34 69.3125 -34 104.48c0 12.5117 3.36035 24.2402 10.0156 32.9922c6.59277 8.76758 15.6328 14.3359 24.96 18.0156c18.7207 7.37598 39.6484 8.32031 59.5205 9.98438
c19.8721 1.67969 38.8799 3.8877 49.9844 9.00781c11.1357 5.13574 15.5195 9.2959 15.5195 26h32c0 -26.5596 -15.6162 -46.2881 -34.4961 -55.0078c-18.8799 -8.7041 -39.8721 -10.3037 -60 -12c-20.1123 -1.68066 -39.2002 -3.52051 -50.5117 -8
c-5.64844 -2.20801 -9.36035 -4.65625 -11.4727 -7.48828c-2.15918 -2.83203 -3.51953 -6.40039 -3.51953 -13.5039c0 -27.3604 10.2881 -61.1836 28 -86.4961c17.7119 -25.3438 41.3916 -41.5039 68 -41.5039c26.6396 0 50.3037 16.2236 68 41.5039
c17.6963 25.2637 28 58.9443 28 86.4961h32c0 -35.3115 -12.2725 -74 -33.9844 -104.992c-1.64746 -2.33594 -3.24805 -4.76758 -5.00781 -7.00781h86c-2.20801 114.72 -24.832 180.16 -50.5273 214.496c-26.9121 36.0635 -56.3203 41.5039 -72.4805 41.5039h-9.51953
l-4.48047 8zM204 176c8.83203 0 16 -7.16797 16 -16s-7.16797 -16 -16 -16s-16 7.16797 -16 16s7.16797 16 16 16zM300 176c8.83203 0 16 -7.16797 16 -16s-7.16797 -16 -16 -16s-16 7.16797 -16 16s7.16797 16 16 16z" />
    <glyph glyph-name="uniF1AB" unicode="&#xf1ab;" 
d="M224 384c61.6641 0 112 -50.3359 112 -112c0 -38.5596 -19.6797 -72.8477 -49.5039 -92.9922c7.77637 -3.32812 15.4238 -7.05566 22.4961 -11.4883c21.0879 15.2803 47.0557 24.4805 75.0078 24.4805c70.4961 0 128 -57.5039 128 -128s-57.5039 -128 -128 -128
s-128 57.5039 -128 128c0 30.3682 10.7197 58.5283 28.4805 80.4805c-18.0166 9.79199 -38.4648 15.5195 -60.4805 15.5195c-70.8799 0 -128 -57.1201 -128 -128h-32c0 65.9199 40.4316 122.512 97.5039 146.992c-29.8242 20.1758 -49.5039 54.4482 -49.5039 93.0078
c0 61.6641 50.3359 112 112 112zM224 352c-44.3682 0 -80 -35.6318 -80 -80s35.6318 -80 80 -80s80 35.6318 80 80s-35.6318 80 -80 80zM384 160c-53.2158 0 -96 -42.7842 -96 -96s42.7842 -96 96 -96s96 42.7842 96 96s-42.7842 96 -96 96zM347.52 123.52v-0.0478516
l36.4805 -36.4795l36.4805 36.5273l22.9912 -23.0391l-36.4795 -36.4805l36.5273 -36.4805l-23.0391 -22.9912l-36.4805 36.4795l-36.4805 -36.5273l-22.9912 23.0391l36.4795 36.4805l-36.5273 36.4805z" />
    <glyph glyph-name="uniF1C5" unicode="&#xf1c5;" 
d="M256 310.496h-0.015625l11.5195 -10.9766l160 -160l26.9922 -27.5195h-396.977l26.9609 27.5039l160 160zM256 264.992v0.015625l-120.992 -121.008h242z" />
    <glyph glyph-name="uniF1C1" unicode="&#xf1c1;" 
d="M256 390.496h-0.015625l11.5195 -10.9766l128 -128l26.9922 -27.5195h-332.977l26.9609 27.5039l128 128zM256 344.992v0.015625l-88.9922 -89.0078h178zM89.5039 160h332.977l-26.9443 -27.5039l-128 -128l-11.5205 -10.9922l-11.5195 10.9766l-128 128zM166.992 128
l89.0078 -89.0078l89.0078 89.0078h-178.016z" />
    <glyph glyph-name="uniF19E" unicode="&#xf19e;" 
d="M395.008 383.52h-0.015625c13.3916 0 26.8799 -5.3916 37.0078 -15.5195c20.2725 -20.2725 20.2725 -53.2324 -0.0478516 -73.4883l-0.480469 -0.992188l-1.00781 -1.02344l9.50391 -9.48828l-11.0078 -11.0078l-249.424 -249.52l-3.52051 -3.48828l-5.00781 -1.00781
l-88 -17.5205l-23.4717 -4.95996l4.95996 23.4883l17.5039 88l1.00781 5.00781l3.48828 3.51953l249.504 249.473l11.0078 11.0078l10 -9.50391l1.48828 1.50391c10.1436 10.1279 23.1201 15.5195 36.5117 15.5195zM395.008 352v-0.015625
c-4.99219 0 -9.74414 -2.24023 -14 -6.49609l-1.48828 -1.50391l28.4805 -28.4805l1.50391 1.48828c8.52832 8.54395 8.52832 19.9678 0 28.5117c-4.25586 4.25586 -9.53613 6.49609 -14.4961 6.49609zM347.488 330.992h0.03125l-23.5195 -23.0078l48 -48l23.0078 23.5195z
M302 284.992l-0.015625 -0.0166016l-167.521 -167.008l29.0244 -6.47949l10 -2l2.01562 -9.98438l6.49609 -29.0234l167.008 167.52zM111.52 90.5117l-0.015625 -0.03125l-6.51172 -32.4805l17.0234 -16.9922l32.4805 6.51172l-8 34.9922z" />
    <glyph glyph-name="uniF14E" unicode="&#xf14e;" 
d="M240 384h32v-321.008l108.48 108.544l23.0391 -23.04l-136 -136l-11.5195 -10.9922l-11.5195 10.9766l-136 136l23.0391 23.0391l108.48 -108.527v321.008z" />
    <glyph glyph-name="uniF126" unicode="&#xf126;" 
d="M64 336h35.5195c14.6729 0 27.4248 -9.75977 30.9922 -24l41.9688 -168h199.52l38.4961 144h33.5039l-41.4717 -152.48c-3.79199 -13.9199 -16.0645 -23.5195 -30.5127 -23.5195h-199.52c-14.6719 0 -27.4238 9.75977 -30.9922 24l-41.9844 168h-35.5195
c-8.83203 0 -16 7.16797 -16 16s7.16797 16 16 16zM352 112c26.3203 0 48 -21.6797 48 -48s-21.6797 -48 -48 -48s-48 21.6797 -48 48s21.6797 48 48 48zM208 112c26.3203 0 48 -21.6797 48 -48s-21.6797 -48 -48 -48s-48 21.6797 -48 48s21.6797 48 48 48zM256 336h32v-80
h48l-64 -64l-64 64h48v80zM208 80c-9.02441 0 -16 -6.97559 -16 -16s6.97559 -16 16 -16s16 6.97559 16 16s-6.97559 16 -16 16zM352 80c-9.02441 0 -16 -6.97559 -16 -16s6.97559 -16 16 -16s16 6.97559 16 16s-6.97559 16 -16 16z" />
    <glyph glyph-name="uniF133" unicode="&#xf133;" 
d="M196 406.496v0.0322266l11.5195 -10.9766l192 -192l10.9922 -11.5195l-10.9756 -11.5205l-192 -192l-11.5205 -10.9922l-11.5195 10.9766l-57.4883 58l-11.0078 11.0078l10.9922 11.4883l123.008 123.008l-122.96 122.992l-11.0078 11.4883l11.0078 11.0078
l57.4404 58.0156zM196 360.992v0.0322266l-35.0078 -35.0088l123.008 -122.479l11.5195 -11.5205l-11.5195 -11.5195l-123.008 -122.496l35.0078 -35.0078l169.008 169.008z" />
    <glyph glyph-name="uniF17D" unicode="&#xf17d;" 
d="M115.008 368h37.9844l103.008 -165.504l102.992 165.504h38l-110 -176h65.0078v-32h-80v-32h80v-32h-80v-80h-32v80h-80v32h80v32h-80v32h65.0078z" />
    <glyph glyph-name="uniF166" unicode="&#xf166;" 
d="M64 368h192v-32h-192v32zM336 368h32v-298.992l41.5039 41.4883l22.4961 -22.4961l-68.4805 -68.9922l-11.5195 -11.0078l-11.5195 10.9922l-68.4805 69.0078l22.4961 22.4961l41.5039 -41.5039v299.008zM64 304h160v-32h-160v32zM64 240h128v-32h-128v32zM64 176h96v-32
h-96v32zM64 112h64v-32h-64v32zM64 48h32v-32h-32v32z" />
    <glyph glyph-name="uniF10C" unicode="&#xf10c;" 
d="M67.5195 275.52l188.48 -188.544l188.48 188.561l23.0391 -23.04l-200 -200l-11.5195 -10.9922l-11.5195 10.9766l-200 200z" />
    <glyph glyph-name="uniF19F" unicode="&#xf19f;" 
d="M138.496 400h-0.015625c8.39941 0 16.6719 -3.04004 23.5195 -8.48047l0.992188 -0.527344l0.527344 -0.480469l64 -66.0156l1.48828 -1.48828l-0.479492 -0.511719c14.1602 -13.2158 13.9521 -35.5205 0.479492 -48.9922l-31.9678 -32
c4.89551 -11.2637 18.3037 -40.0156 44.4795 -65.0234c26.3525 -25.1689 53.9209 -39.4561 65.4883 -45.0088l31.5205 31.5205l0.479492 0.511719c13.2803 13.2803 36.7197 13.2803 50 0l0.511719 -1.00781l64.9922 -64.9922c13.2803 -13.2803 13.2803 -36.2236 0 -49.5039
l-49.5361 -49.4883l-0.511719 -0.511719l-0.479492 -0.480469c-15.0088 -12.8633 -36.0488 -17.4873 -55.5205 -11.0078h-0.479492c-37.5527 14.7207 -113.504 48 -181.504 116c-67.7285 67.7441 -102.448 142.656 -116 181.504
c-0.0322266 0.0966797 0.03125 0.400391 0 0.480469c-6.7041 18.4316 -1.9043 39.7441 13.5039 54.0156l-0.480469 0.480469l50 51.5195l0.511719 0.480469l0.959961 0.527344c6.88086 5.44043 15.1523 8.48047 23.5205 8.48047zM138.496 368h-0.015625
c-1.16895 0 -2.32031 -0.576172 -3.47266 -1.50391l-48.5117 -49.4883l-0.511719 -0.527344l-0.480469 -0.480469c-5.67969 -4.84766 -7.43945 -14.4961 -4.99219 -21.0078c12.1279 -34.832 45.2002 -106.672 108.48 -169.984
c62.7998 -62.7676 133.231 -93.7598 169.52 -108c9.32812 -3.10352 17.1201 -1.82422 24.4805 4.51172l49.0078 49.0088c2.71973 2.71973 2.71973 1.75977 0 4.47949l-65.5195 65.4883c-2.7207 2.71973 -2.24023 2.71973 -4.96094 0l-40 -40l-7.51953 -7.48828l-10 4.51172
s-43.8398 18.5283 -81.0244 52.4805l-3.47168 2.99219c-38.6074 36.8477 -57.0078 86.0156 -57.0078 86.0156l-3.52051 9.98438l7.52051 7.00781l40 40c1.95215 1.96777 0.879883 3.59961 0.992188 3.51953l-0.480469 0.480469l-0.992188 1.00781l-64 65.4883
c-1.16797 0.927734 -2.33594 1.50391 -3.51953 1.50391z" />
    <glyph glyph-name="uniF140" unicode="&#xf140;" 
d="M256 336c102.08 0 191.52 -33.0557 191.52 -33.0557l9.48828 -3.45605l1.00781 -9.50391l21.5205 -164c5.82422 -45.3604 -26.6562 -87.6641 -72 -93.5205c-42.2246 -5.43945 -80.0801 23.0723 -90 63.5205h-123.008c-9.87207 -40.4805 -47.792 -68.96 -90.0322 -63.5205
c-45.3281 5.82422 -77.8076 48.1445 -72 93.5039l21.5039 164l0.992188 9.53613l9.48828 3.48828s89.3916 33.0078 191.52 33.0078zM256 304c-87.7598 0 -160.096 -24.3838 -171.984 -28.4639l-19.5195 -154c-3.59961 -28.2246 15.8398 -53.376 44 -57.0244
c28.208 -3.61523 53.8877 15.8086 57.5195 44l0.480469 5.50391l1.98438 13.9844h175.039l2 -13.9678l0.480469 -5.53613c3.63184 -28.1602 29.3115 -47.5996 57.5195 -44c28.1924 3.63184 47.6162 28.7998 44 57.0078l-19.5195 154.016
c-11.8877 4.09668 -84.2236 28.4805 -172 28.4805zM144 256h32v-32h32v-32h-32v-32h-32v32h-32v32h32v32zM352 256c8.83203 0 16 -7.16797 16 -16s-7.16797 -16 -16 -16s-16 7.16797 -16 16s7.16797 16 16 16zM320 224c8.83203 0 16 -7.16797 16 -16s-7.16797 -16 -16 -16
s-16 7.16797 -16 16s7.16797 16 16 16zM384 224c8.83203 0 16 -7.16797 16 -16s-7.16797 -16 -16 -16s-16 7.16797 -16 16s7.16797 16 16 16zM352 192c8.83203 0 16 -7.16797 16 -16s-7.16797 -16 -16 -16s-16 7.16797 -16 16s7.16797 16 16 16z" />
    <glyph glyph-name="uniF16D" unicode="&#xf16d;" 
d="M80 368h352v-352h-352v352zM112 336v-128h128v128h-128zM272 336v-128h128v128h-128zM112 176v-128h128v128h-128zM272 176v-128h128v128h-128z" />
    <glyph glyph-name="uniF186" unicode="&#xf186;" 
d="M256 385.504l6 -2.49609l192 -80.0322l10 -4.47949v-42.4961h-32v-176h32v-80h-416v80h32v176h-32v42.4805l10 4.52734l192 80zM256 350.496l-150 -62.4961h300zM112 256v-176h32v176h-32zM176 256v-176h32v176h-32zM240 256v-176h32v176h-32zM304 256v-176h32v176h-32z
M368 256v-176h32v176h-32zM80 48v-16h352v16h-352z" />
    <glyph glyph-name="uniF175" unicode="&#xf175;" 
d="M80 400v-0.015625h214.496l5.02344 -4.48047l96 -96l4.48047 -5.00781v-310.496h-320v416zM112 368v-352h256v256h-96v96h-160zM304 344.992v0.015625v-41.0078h41.0078zM321.504 224c8.83203 0 16 -7.16797 16 -16s-7.16797 -16 -16 -16c-8.84766 0 -16 7.16797 -16 16
s7.15234 16 16 16zM208 198.496v-0.015625l11.5195 -11.0088l36.4805 -36.4795l20.4805 20.5117l11.5195 10.9922l11.5195 -10.9766l48 -48l-23.0391 -22.9912l-36.4805 36.4795l-20.4805 -20.4961l-11.5195 -10.9922l-11.5195 11.0088l-36.4805 36.4795l-52.4805 -52.5439
l-23.0391 23.04l64 64z" />
    <glyph glyph-name="uniF1D4" unicode="&#xf1d4;" 
d="M64 384h288v-96h96v-288h-288v96h-96v288zM96 352v-224h72.9922l151.008 150.992v73.0078h-224zM176 320h32v-16h48v-32h-16.9922c-1.67969 -18.4316 -6.31934 -35.4404 -15.0078 -50v-30c-9.15234 0 -17.6162 1.05566 -26 2.49609
c-18.0322 -12.0156 -41.6484 -18.4961 -70 -18.4961v32c10.4639 0 19.6162 0.832031 27.5195 2.48047c-15.7754 10.5918 -27.5195 26.4316 -27.5195 45.5039h31.9844c0 -6.7207 4.25586 -13.792 15.5195 -20.4805c4.04785 -2.41602 9.02441 -4.71973 14.4961 -6.51172
c9.2959 10.1436 14.9277 24.6074 17.0078 43.0078h-79.0078v32h48v16zM343.008 256l-151.008 -150.992v-73.0078h224v224h-72.9922zM320 226.496v-0.015625l14.9922 -45.4727l32 -96l1.00781 -2.51172v-18.4961h-32v14l-0.480469 2h-31.0391l-0.480469 -2v-14h-32v18.4961
l0.992188 2.49609l32 96zM320 126.016v-0.015625l-4.48047 -14h8.96094z" />
    <glyph glyph-name="uniF141" unicode="&#xf141;" 
d="M64 384h256v-48h-32v16h-192v-256h80v-32h-112v320zM192 320h256v-320h-256v320zM224 288v-256h192v256h-192z" />
    <glyph glyph-name="uniF161" unicode="&#xf161;" 
d="M96 400h352v-166.48l-4.48047 -5.02344l-27.5195 -27.4883v-217.008h-320v416zM128 368v-352h256v185.024l-27.5195 27.4717l-4.48047 5.00781v134.496h-224zM384 368v-121.008l16 -16l16 16v121.008h-32z" />
    <glyph glyph-name="uniF178" unicode="&#xf178;" 
d="M256 400c114.688 0 208 -93.3115 208 -208s-93.3115 -208 -208 -208s-208 93.3115 -208 208s93.3115 208 208 208zM256 368c-97.3916 0 -176 -78.6084 -176 -176s78.6084 -176 176 -176s176 78.6084 176 176s-78.6084 176 -176 176zM240 288h32v-32h-32v32zM240 224h32
v-128h-32v128z" />
    <glyph glyph-name="uniF1E8" unicode="&#xf1e8;" 
d="M80 400h320v-416h-320v416zM112 368v-352h256v352h-256zM272 256h64v-32h-32v-72c0 -22.1279 -17.8721 -40 -40 -40c-6.17578 0 -9.66406 4.52832 -14.4961 7.51953c-6.52832 -13.2158 -17.7598 -23.5195 -33.5039 -23.5195c-22.1279 0 -40 17.8721 -40 40v72h-32v32h64
v-104c0 -3.47168 4.52832 -8 8 -8s8 4.52832 8 8v72h32v-32s0.0957031 -10.4316 2.51172 -20c1.18457 -4.78418 3.16797 -9.23242 4.48047 -10.9922c1.32812 -1.77539 0.335938 -1.00781 1.00781 -1.00781c3.47168 0 8 4.52832 8 8v104z" />
    <glyph glyph-name="uniF1BF" unicode="&#xf1bf;" 
d="M76 336h35.5195c14.6729 0 27.4248 -9.75977 30.9922 -24l41.9688 -168h183.52l30.4961 112h-218.496l-8 32h268l-41.4717 -152.48c-3.79199 -13.9199 -16.0645 -23.5195 -30.5127 -23.5195h-183.52c-14.6719 0 -27.4238 9.75977 -30.9922 24l-41.9844 168h-35.5195
c-8.83203 0 -16 7.16797 -16 16s7.16797 16 16 16zM348 112c26.3203 0 48 -21.6797 48 -48s-21.6797 -48 -48 -48s-48 21.6797 -48 48s21.6797 48 48 48zM204 112c26.3203 0 48 -21.6797 48 -48s-21.6797 -48 -48 -48s-48 21.6797 -48 48s21.6797 48 48 48zM204 80
c-9.02441 0 -16 -6.97559 -16 -16s6.97559 -16 16 -16s16 6.97559 16 16s-6.97559 16 -16 16zM348 80c-9.02441 0 -16 -6.97559 -16 -16s6.97559 -16 16 -16s16 6.97559 16 16s-6.97559 16 -16 16z" />
    <glyph glyph-name="uniF11D" unicode="&#xf11d;" 
d="M96 352h320c26.3203 0 48 -21.6797 48 -48v-108.48c9.75977 -8.83105 16 -21.4717 16 -35.5195v-144h-80v32h-288v-32h-80v144c0 14.0479 6.24023 26.6885 16 35.5195v108.48c0 26.3203 21.6797 48 48 48zM96 320c-8.87988 0 -16 -7.12012 -16 -16v-96h32v16
c0 26.3203 21.6797 48 48 48h64c12.2725 0 23.4717 -4.7998 32 -12.4805c8.52832 7.68066 19.7275 12.4805 32 12.4805h64c26.3203 0 48 -21.6797 48 -48v-16h32v96c0 8.87988 -7.12012 16 -16 16h-320zM160 240c-8.87988 0 -16 -7.12012 -16 -16v-16h96v16
c0 8.87988 -7.12012 16 -16 16h-64zM288 240c-8.87988 0 -16 -7.12012 -16 -16v-16h96v16c0 8.87988 -7.12012 16 -16 16h-64zM80 176c-8.87988 0 -16 -7.12012 -16 -16v-112h16v32h352v-32h16v112c0 8.87988 -7.12012 16 -16 16h-352z" />
    <glyph glyph-name="uniF136" unicode="&#xf136;" 
d="M256 400c114.688 0 208 -93.3115 208 -208s-93.3115 -208 -208 -208s-208 93.3115 -208 208s93.3115 208 208 208zM256 368c-97.3916 0 -176 -78.6084 -176 -176s78.6084 -176 176 -176s176 78.6084 176 176s-78.6084 176 -176 176zM256 270.496l11.5195 -10.9766l96 -96
l-23.0391 -22.9912l-84.4805 84.4795l-84.4805 -84.5439l-23.0391 23.04l96 96z" />
    <glyph glyph-name="uniF170" unicode="&#xf170;" 
d="M99.5195 352h312.961l3.03906 -12l48 -192l0.480469 -2v-114h-416v114l0.480469 2l48 192zM124.48 320l-40 -160h343.039l-40 160h-263.039zM80 128v-64h352v64h-352zM384 112c8.83203 0 16 -7.16797 16 -16s-7.16797 -16 -16 -16s-16 7.16797 -16 16s7.16797 16 16 16z
" />
    <glyph glyph-name="uniF124" unicode="&#xf124;" 
d="M283.008 368l-0.015625 0.015625c12.9277 -0.03125 25.9678 -2.7832 39.0078 -8l-12 -29.5039c-49.2002 19.6963 -102 -17.2793 -102 -68.9922c0 -14 6.24023 -32.5918 13.5039 -53.4717h98.4961v-32h-88c1.9043 -6.14355 3.87207 -12.0957 5.50391 -18.4961
c8.57617 -33.584 9.77637 -72.6074 -12.5117 -109.52h127.008v48h32v-80h-256v32h56.4961c31.9199 34.5918 31.0078 66.208 22 101.504c-2.24023 8.84766 -4.83203 17.6162 -8 26.4795h-54.4961v32h42.4961c-5.96777 17.6328 -10.4961 35.4248 -10.4961 53.5039
c0 55.2324 43.168 98.9121 94 105.473c4.24023 0.55957 8.68848 1.00781 13.0078 1.00781z" />
    </font>
</defs>
</svg>
